<?xml version="1.0" standalone="no"?>
<!DOCTYPE svg PUBLIC "-//W3C//DTD SVG 1.1//EN" "http://www.w3.org/Graphics/SVG/1.1/DTD/svg11.dtd" >
<svg xmlns="http://www.w3.org/2000/svg">
<metadata>
<json>
{
	"fontFamily": "metrize",
	"majorVersion": 1,
	"minorVersion": 0,
	"version": "Version 1.0",
	"fontId": "metrize",
	"psName": "metrize",
	"subFamily": "Regular",
	"fullName": "metrize",
	"description": "Font generated by IcoMoon."
}
</json>
</metadata>
<defs>
<font id="metrize" horiz-adv-x="512">
<font-face units-per-em="512" ascent="480" descent="-32" />
<missing-glyph horiz-adv-x="512" />
<glyph unicode="&#x20;" d="" horiz-adv-x="256" />
<glyph unicode="&#xe600;" d="M256 480c-141.391 0-256-114.609-256-256s114.609-256 256-256 256 114.609 256 256-114.609 256-256 256zM256 8c-119.297 0-216 96.703-216 216s96.703 216 216 216 216-96.703 216-216-96.703-216-216-216zM367.766 256.125l-0.109 32.141-111.969 63.734-111.688-64.266 0.078-31.828 0.234-96.156 112-63.75 111.688 64.266-0.234 95.859zM255.781 319.844l69.812-39.719-69.641-40.062-69.828 39.734 69.657 40.047zM172.344 175.891l-0.203 79.766 69.547-39.578 0.219-79.781-69.563 39.593zM270.234 136.219l-0.187 79.781 69.609 40.062 0.25-79.812-69.672-40.031z" />
<glyph unicode="&#xe601;" d="M256 480c-141.391 0-256-114.609-256-256s114.609-256 256-256 256 114.609 256 256-114.609 256-256 256zM256 8c-119.297 0-216 96.703-216 216s96.703 216 216 216 216-96.703 216-216-96.703-216-216-216zM256 352c-70.688 0-128-57.297-128-128 0-70.688 57.312-128 128-128 70.703 0 128 57.312 128 128 0 70.703-57.297 128-128 128zM160 224c0 52.938 48 96 96 96v-192c-48 0-96 43.062-96 96z" />
<glyph unicode="&#xe602;" d="M256 480c-141.391 0-256-114.609-256-256s114.609-256 256-256 256 114.609 256 256-114.609 256-256 256zM256 8c-119.297 0-216 96.703-216 216s96.703 216 216 216 216-96.703 216-216-96.703-216-216-216zM128 352l73.141-256 73.141 51.203 54.859-51.203v85.328l54.859 51.203-256 119.469zM292.578 181.328l-97.375 93.875 97.375-76.797v-17.078z" />
<glyph unicode="&#xe603;" d="M256 480c-141.391 0-256-114.609-256-256s114.609-256 256-256 256 114.609 256 256-114.609 256-256 256zM256 8c-119.297 0-216 96.703-216 216s96.703 216 216 216 216-96.703 216-216-96.703-216-216-216zM256 336c-61.844 0-112-50.156-112-112s50.156-112 112-112 112 50.156 112 112-50.156 112-112 112zM256 133c-50.25 0-91 40.766-91 91 0 50.25 40.75 91 91 91 50.234 0 91-40.75 91-91 0-50.234-40.766-91-91-91zM256 208c-8.844 0-16 7.156-16 16s7.156 16 16 16 16-7.156 16-16-7.156-16-16-16zM246.062 222.625l11.329 11.313 30.156-30.157-11.313-11.328zM234.969 275.547l15.531 3.844 14.719-59.344-15.531-3.844zM373 341.031c-14.625 14.656-38.375 14.656-53.031 0l53.031-53.031c14.656 14.641 14.656 38.406 0 53.031zM138.984 341c-14.641-14.625-14.641-38.375 0-53.031l53.047 53.031c-14.656 14.656-38.406 14.656-53.047 0z" />
<glyph unicode="&#xe604;" d="M256 480.5c-141.667 0-256.5-114.833-256.5-256.5s114.833-256.5 256.5-256.5 256.5 114.833 256.5 256.5-114.833 256.5-256.5 256.5zM256 7.578c-119.53 0-216.422 96.892-216.422 216.422s96.892 216.422 216.422 216.422c119.53 0 216.422-96.892 216.422-216.422s-96.892-216.422-216.422-216.422zM133.48 243.381c-9.394-8.673-6.982-27.397 5.385-41.863 12.368-14.45 29.996-19.131 39.374-10.427 9.378 8.643 6.967 27.397-5.401 41.832s-29.996 19.132-39.358 10.458zM338.833 236.243c-11.006-15.625-11.694-34.52-1.55-42.223 10.129-7.671 27.257-1.314 38.247 14.325 10.99 15.593 11.679 34.473 1.55 42.191-10.13 7.687-27.272 1.284-38.247-14.293zM226.129 239.875c16.517 3.977 25.111 28.65 19.179 55.107-5.887 26.458-24.078 44.681-40.595 40.705-16.501-4.008-25.080-28.681-19.194-55.139 5.933-26.427 24.109-44.65 40.61-40.673zM309.057 335.687c-16.501 3.977-34.677-14.247-40.595-40.705s2.661-51.131 19.193-55.107c16.485-3.976 34.677 14.247 40.595 40.673 5.934 26.457-2.692 51.131-19.193 55.139zM256 217.487c-39.374 0-68.932-62.7-68.932-83.444 0-51.005 29.558 1.613 68.932 1.613 39.39 0 68.932-52.618 68.932-1.613 0 20.744-29.542 83.444-68.932 83.444z" />
<glyph unicode="&#xe605;" d="M256 480c-141.391 0-256-114.609-256-256s114.609-256 256-256 256 114.609 256 256-114.609 256-256 256zM256 8c-119.297 0-216 96.703-216 216s96.703 216 216 216 216-96.703 216-216-96.703-216-216-216zM325 229.562c-42.203 27.36-109.5 26.438-109.5 26.438v48l-96-80 96-64v48c0 0 45 9 85.844-6.406 37.344-14.078 78.406-57.594 78.406-57.594s-12.547 58.172-54.75 85.562z" />
<glyph unicode="&#xe606;" d="M256 480c-141.391 0-256-114.609-256-256s114.609-256 256-256 256 114.609 256 256-114.609 256-256 256zM256 8c-119.297 0-216 96.703-216 216s96.703 216 216 216 216-96.703 216-216-96.703-216-216-216zM279.5 304c0 0-58.797 0.922-101-26.438-42.203-27.39-52.625-85.562-52.625-85.562s37.875 43.516 75.219 57.594c40.844 15.406 78.406 6.406 78.406 6.406v-48l96 64-96 80v-48zM301.344 198.406c-40.844-15.406-85.844-6.406-85.844-6.406v48l-96-64 96-80v48c0 0 67.297-0.922 109.5 26.438 42.203 27.39 54.75 85.562 54.75 85.562s-41.062-43.516-78.406-57.594z" />
<glyph unicode="&#xe607;" d="M256 480c-141.391 0-256-114.609-256-256s114.609-256 256-256 256 114.609 256 256-114.609 256-256 256zM256 8c-119.297 0-216 96.703-216 216s96.703 216 216 216 216-96.703 216-216-96.703-216-216-216zM279.5 256c0 0-58.797 0.922-101-26.438-42.203-27.39-52.625-85.562-52.625-85.562s37.875 43.516 75.219 57.594c40.844 15.406 78.406 6.406 78.406 6.406v-48l96 64-96 80v-48z" />
<glyph unicode="&#xe608;" d="M256 480c-141.391 0-256-114.609-256-256s114.609-256 256-256 256 114.609 256 256-114.609 256-256 256zM256 8c-119.297 0-216 96.703-216 216s96.703 216 216 216 216-96.703 216-216-96.703-216-216-216zM188.117 291.875c37.5 37.5 98.273 37.5 135.758 0l-11.312-11.312 50.922-16.969-16.985 50.922-11.312-11.328c-43.75 43.75-114.641 43.75-158.383 0-27.984-27.984-37.977-67.078-30.141-103.078l18.211-6.078c-10.922 33.312-3.227 71.374 23.242 97.843zM347.125 253.969c10.922-33.312 3.234-71.375-23.25-97.844-37.5-37.5-98.258-37.5-135.758 0l11.312 11.312-50.906 16.969 16.969-50.922 11.313 11.312c43.742-43.734 114.648-43.734 158.383 0 28 28 37.984 67.078 30.156 103.094l-18.219 6.079z" />
<glyph unicode="&#xe609;" d="M256 480c-141.391 0-256-114.609-256-256s114.609-256 256-256 256 114.609 256 256-114.609 256-256 256zM256 8c-119.297 0-216 96.703-216 216s96.703 216 216 216 216-96.703 216-216-96.703-216-216-216zM247.5 320v-16l48 24-48 24v-16c-32 0-70.039-20.594-89.961-51.578l6.461-17.172c15.828 31.266 51.5 52.75 83.5 52.75zM160 215.5h16l-24 48-24-48h16c0-32 20.586-70.031 51.578-89.969l17.172 6.469c-31.266 15.828-52.75 51.5-52.75 83.5zM247.5 128v16l-48-24 48-24v16c48 0 78.531 20.594 98.469 51.578l-10.719 17.172c-15.828-31.266-39.75-52.75-87.75-52.75zM316.422 313.969l-17.172-10.719c31.266-15.828 52.75-39.75 52.75-87.75h-16l24-48 24 48h-16c0 48-20.594 78.531-51.578 98.469z" />
<glyph unicode="&#xe60a;" d="M0 224c0-141.391 114.594-256 256-256 141.375 0 256 114.609 256 256s-114.625 256-256 256c-141.406 0-256-114.609-256-256zM472 224c0-119.297-96.719-216-216-216-119.312 0-216 96.703-216 216s96.688 216 216 216c119.281 0 216-96.703 216-216zM144 254l112-112 112 112-32 32-80-80-80 80z" />
<glyph unicode="&#xe60b;" d="M0 224c0-141.406 114.609-256 256-256s256 114.594 256 256c0 141.375-114.609 256-256 256s-256-114.625-256-256zM472 224c0-119.312-96.703-216-216-216s-216 96.688-216 216c0 119.281 96.703 216 216 216s216-96.719 216-216zM160 208l96-112 96 112h-48.016v144h-96v-144z" />
<glyph unicode="&#xe60c;" d="M256 480c-141.391 0-256-114.609-256-256s114.609-256 256-256 256 114.609 256 256-114.609 256-256 256zM256 8c-119.297 0-216 96.703-216 216s96.703 216 216 216 216-96.703 216-216-96.703-216-216-216zM256 117.5l112 192h-224z" />
<glyph unicode="&#xe60d;" d="M512 224c0 141.392-114.608 256-256 256s-256-114.608-256-256 114.608-256 256-256 256 114.608 256 256zM40 224c0 119.296 96.704 216 216 216 119.298 0 216-96.704 216-216 0-119.298-96.702-216-216-216-119.296 0-216 96.702-216 216zM274.122 136.532l89.592 145.578c9.97 16.844 1.938 24.39-17.841 24.39h-179.768c-19.75 0-27.796-7.546-17.812-24.39l89.579-148.655c9.969-16.907 26.28-13.814 36.25 3.077z" />
<glyph unicode="&#xe60e;" d="M0 224c0-141.406 114.609-256 256-256s256 114.594 256 256c0 141.375-114.609 256-256 256s-256-114.625-256-256zM472 224c0-119.312-96.703-216-216-216s-216 96.688-216 216c0 119.281 96.703 216 216 216s216-96.719 216-216zM239.961 352v-198.406l-41.125 38.406-22.844-21.344 80-74.656 80.016 74.656-22.906 21.344-41.141-38.406v198.406z" />
<glyph unicode="&#xe60f;" d="M0 224c0-141.391 114.594-256 256-256 141.375 0 256 114.609 256 256s-114.625 256-256 256c-141.406 0-256-114.609-256-256zM472 224c0-119.297-96.719-216-216-216-119.312 0-216 96.703-216 216s96.688 216 216 216c119.281 0 216-96.703 216-216zM148.688 273.312c-6.25-6.25-6.25-16.375 0-22.625l96-96c6.25-6.25 16.375-6.25 22.625 0l96 96c3.125 3.125 4.687 7.219 4.687 11.313s-1.562 8.188-4.688 11.312c-6.25 6.25-16.375 6.25-22.625 0l-84.687-84.687-84.688 84.688c-6.25 6.249-16.374 6.249-22.624-0.001z" />
<glyph unicode="&#xe610;" d="M256 480c-141.391 0-256-114.609-256-256s114.609-256 256-256 256 114.609 256 256-114.609 256-256 256zM256 8c-119.297 0-216 96.703-216 216s96.703 216 216 216 216-96.703 216-216-96.703-216-216-216zM304 336h-96c-8.797 0-16-7.188-16-15.969v-143.828c0-8.766 4.484-21.594 9.969-28.469l43.656-62.578c5.469-6.875 14.469-6.875 19.969-0.031l44.391 62.641c5.515 6.859 10.015 19.672 10.015 28.437v143.828c0 8.781-7.203 15.969-16 15.969z" />
<glyph unicode="&#xe611;" d="M256 480c-141.391 0-256-114.609-256-256s114.609-256 256-256 256 114.609 256 256-114.609 256-256 256zM256 8c-119.297 0-216 96.703-216 216s96.703 216 216 216 216-96.703 216-216-96.703-216-216-216zM352.031 288h-143.828c-8.766 0-21.594-4.484-28.469-9.969l-62.578-43.656c-6.875-5.469-6.875-14.469-0.031-19.969l62.641-44.391c6.859-5.515 19.672-10.015 28.437-10.015h143.828c8.781 0 15.969 7.203 15.969 16v96c0 8.797-7.188 16-15.969 16z" />
<glyph unicode="&#xe612;" d="M256 480c-141.391 0-256-114.609-256-256s114.609-256 256-256 256 114.609 256 256-114.609 256-256 256zM256 8c-119.297 0-216 96.703-216 216s96.703 216 216 216 216-96.703 216-216-96.703-216-216-216zM332.234 277.984c-6.859 5.516-19.672 10.016-28.437 10.016h-143.828c-8.781 0-15.969-7.203-15.969-16v-96c0-8.797 7.188-16 15.969-16h143.828c8.766 0 21.594 4.484 28.469 9.969l62.578 43.656c6.875 5.469 6.875 14.469 0.031 19.969l-62.641 44.39z" />
<glyph unicode="&#xe613;" d="M256 480c-141.391 0-256-114.609-256-256s114.609-256 256-256 256 114.609 256 256-114.609 256-256 256zM256 8c-119.297 0-216 96.703-216 216s96.703 216 216 216 216-96.703 216-216-96.703-216-216-216zM266.375 362.844c-5.469 6.875-14.469 6.875-19.969 0.031l-44.391-62.641c-5.515-6.859-10.015-19.672-10.015-28.437v-143.828c0-8.781 7.203-15.969 16-15.969h96c8.797 0 16 7.188 16 15.969v143.828c0 8.766-4.484 21.594-9.969 28.469l-43.656 62.578z" />
<glyph unicode="&#xe614;" d="M256 480c-141.391 0-256-114.609-256-256s114.609-256 256-256 256 114.609 256 256-114.609 256-256 256zM256 8c-119.297 0-216 96.703-216 216s96.703 216 216 216 216-96.703 216-216-96.703-216-216-216zM286 336l-112-112 112-112 32 32-80 80 80 80z" />
<glyph unicode="&#xe615;" d="M256 480c-141.438 0-256-114.609-256-256s114.562-256 256-256c141.375 0 256 114.609 256 256s-114.625 256-256 256zM256 8c-119.344 0-216.031 96.703-216.031 216s96.687 216 216.031 216c119.281 0 216-96.703 216-216s-96.719-216-216-216zM240 320l-112-96 112-96v47.969h144v96h-144z" />
<glyph unicode="&#xe616;" d="M256-32c141.391 0 256 114.609 256 256s-114.609 256-256 256c-141.391 0-256-114.609-256-256s114.609-256 256-256zM256 440c119.297 0 216-96.703 216-216s-96.703-216-216-216-216 96.703-216 216 96.703 216 216 216zM331.5 336l-192-112 192-112z" />
<glyph unicode="&#xe617;" d="M256-32c141.391 0 256 114.609 256 256s-114.609 256-256 256c-141.391 0-256-114.609-256-256s114.609-256 256-256zM256 440c119.297 0 216-96.703 216-216s-96.703-216-216-216-216 96.703-216 216 96.703 216 216 216zM157.84 205.879l145.872-89.594c16.844-9.969 24.685-1.938 24.685 17.844v179.766c0 19.75-7.841 27.797-24.685 17.812l-148.795-89.578c-16.922-9.969-13.968-26.281 2.923-36.25z" />
<glyph unicode="&#xe618;" d="M256 480c-141.391 0-256-114.609-256-256s114.609-256 256-256 256 114.609 256 256-114.609 256-256 256zM256 8c-119.297 0-216 96.703-216 216s96.703 216 216 216 216-96.703 216-216-96.703-216-216-216zM384 240h-198.406l38.406 41.156-21.344 22.844-74.656-80 74.656-80 21.344 22.875-38.406 41.125h198.406z" />
<glyph unicode="&#xe619;" d="M256 480c-141.391 0-256-114.609-256-256s114.609-256 256-256 256 114.609 256 256-114.609 256-256 256zM256 8c-119.297 0-216 96.703-216 216s96.703 216 216 216 216-96.703 216-216-96.703-216-216-216zM305.312 331.312c-6.25 6.25-16.375 6.25-22.625 0l-96-96c-6.25-6.25-6.25-16.375 0-22.625l96-96c3.125-3.125 7.219-4.687 11.313-4.687s8.188 1.562 11.312 4.688c6.25 6.25 6.25 16.375 0 22.625l-84.687 84.687 84.688 84.688c6.249 6.25 6.249 16.374-0.001 22.624z" />
<glyph unicode="&#xe61a;" d="M0 224c0-141.391 114.609-256 256-256s256 114.609 256 256-114.609 256-256 256-256-114.609-256-256zM472 224c0-119.297-96.703-216-216-216s-216 96.703-216 216 96.703 216 216 216 216-96.703 216-216zM223.953 352h64v-16h-64v16zM223.953 320h64v-16h-64v16zM223.953 288h64v-16h-64v16zM192 160l64-64 64 64h-32.047v64h-64v-64zM223.953 256h64v-16h-64v16z" />
<glyph unicode="&#xe61b;" d="M256 480c-141.391 0-256-114.609-256-256s114.609-256 256-256 256 114.609 256 256-114.609 256-256 256zM256 8c-119.297 0-216 96.703-216 216s96.703 216 216 216 216-96.703 216-216-96.703-216-216-216zM368 256h16v-64h-16v64zM336 256h16v-64h-16v64zM304 256h16v-64h-16v64zM192 288l-64-64 64-64v32h64v64h-64zM272 256h16v-64h-16v64z" />
<glyph unicode="&#xe61c;" d="M256-32c141.391 0 256 114.609 256 256s-114.609 256-256 256-256-114.609-256-256 114.609-256 256-256zM256 440c119.297 0 216-96.703 216-216s-96.703-216-216-216-216 96.703-216 216 96.703 216 216 216zM128 256h16v-64h-16v64zM160 256h16v-64h-16v64zM192 256h16v-64h-16v64zM320 160l64 64-64 64v-32h-64v-64h64zM224 256h16v-64h-16v64z" />
<glyph unicode="&#xe61d;" d="M512 224c0 141.391-114.609 256-256 256s-256-114.609-256-256 114.609-256 256-256 256 114.609 256 256zM40 224c0 119.297 96.703 216 216 216s216-96.703 216-216-96.703-216-216-216-216 96.703-216 216zM223.969 112h64v-16h-64v16zM223.969 144h64v-16h-64v16zM223.969 176h64v-16h-64v16zM320 288l-64 64-64-64h31.969v-64h64v64zM223.969 208h64v-16h-64v16z" />
<glyph unicode="&#xe61e;" d="M256 480c-141.391 0-256-114.609-256-256s114.609-256 256-256 256 114.609 256 256-114.609 256-256 256zM256 8c-119.297 0-216 96.703-216 216s96.703 216 216 216 216-96.703 216-216-96.703-216-216-216zM176 336l-32-32 40-40-24-24h80v80l-24-24zM352.031 208h-80.031v-79.984l24.016 24 40.015-40 32 32-40 39.984z" />
<glyph unicode="&#xe61f;" d="M256 480c-141.391 0-256-114.609-256-256s114.609-256 256-256 256 114.609 256 256-114.609 256-256 256zM256 8c-119.297 0-216 96.703-216 216s96.703 216 216 216 216-96.703 216-216-96.703-216-216-216zM159.984 240h80.016v80l-24-24-40.016 40-32-32 40-40zM328.016 184l24 24h-80.016v-79.984l24 24 40.016-40 32 32zM327.984 264.016l40 39.984-32 32.016-39.984-40-24 24v-80.016h79.984zM183.984 184l-40-40.016 32-32 40 40 24.016-24v80.016h-80.016z" />
<glyph unicode="&#xe620;" d="M256 480c-141.391 0-256-114.609-256-256s114.609-256 256-256 256 114.609 256 256-114.609 256-256 256zM256 8c-119.297 0-216 96.703-216 216s96.703 216 216 216 216-96.703 216-216-96.703-216-216-216zM224 336h-80v-80l24 24 40-40 32 32-40 40zM304 208l-32-32 40-40-24-24h80v80l-24-24z" />
<glyph unicode="&#xe621;" d="M256 480c-141.391 0-256-114.609-256-256s114.609-256 256-256 256 114.609 256 256-114.609 256-256 256zM256 8c-119.297 0-216 96.703-216 216s96.703 216 216 216 216-96.703 216-216-96.703-216-216-216zM224 336h-80v-80l24 24 40-40 32 32-40 40zM288 112h80v80l-24-24-40 40-32-32 40-40zM368 256v80h-80l24-24-40-40 32-32 40 40zM144 192v-80h80l-24 24 40 40-32 32-40-40z" />
<glyph unicode="&#xe622;" d="M256-32c141.391 0 256 114.609 256 256s-114.609 256-256 256-256-114.609-256-256 114.609-256 256-256zM256 440c119.297 0 216-96.703 216-216s-96.703-216-216-216-216 96.703-216 216 96.703 216 216 216zM226 112l112 112-112 112-32-32 80-80-80-80z" />
<glyph unicode="&#xe623;" d="M256.008-32.004c141.408 0 255.988 114.611 255.988 256.004s-114.58 256.004-255.988 256.004c-141.377 0-256.004-114.611-256.004-256.004s114.627-256.004 256.004-256.004zM256.008 440.003c119.314 0 216.003-96.705 216.003-216.003s-96.688-216.004-216.003-216.004c-119.283 0-216.004 96.705-216.004 216.004s96.721 216.003 216.004 216.003zM272 127.998l112.002 96.002-112.002 96.002v-48.001h-144.002v-96.001h144.002z" />
<glyph unicode="&#xe624;" d="M256 480c-141.391 0-256-114.609-256-256s114.609-256 256-256 256 114.609 256 256-114.609 256-256 256zM256 8c-119.297 0-216 96.703-216 216s96.703 216 216 216 216-96.703 216-216-96.703-216-216-216zM169.5 112l192 112-192 112z" />
<glyph unicode="&#xe625;" d="M256 480c-141.391 0-256-114.609-256-256s114.609-256 256-256 256 114.609 256 256-114.609 256-256 256zM256 8c-119.297 0-216 96.703-216 216s96.703 216 216 216 216-96.703 216-216-96.703-216-216-216zM353.661 242.121l-154.174 89.594c-16.844 9.969-32.987 1.938-32.987-17.844v-179.766c0-19.75 16.143-27.797 32.987-17.812l152.955 89.578c16.906 9.969 18.11 26.281 1.219 36.25z" />
<glyph unicode="&#xe626;" d="M256-32c141.391 0 256 114.609 256 256s-114.609 256-256 256-256-114.609-256-256 114.609-256 256-256zM256 440c119.297 0 216-96.703 216-216s-96.703-216-216-216-216 96.703-216 216 96.703 216 216 216zM128 208h198.406l-38.406-41.156 21.344-22.844 74.656 80-74.656 80-21.344-22.875 38.406-41.125h-198.406z" />
<glyph unicode="&#xe627;" d="M256-32c141.391 0 256 114.609 256 256s-114.609 256-256 256-256-114.609-256-256 114.609-256 256-256zM256 440c119.297 0 216-96.703 216-216s-96.703-216-216-216-216 96.703-216 216 96.703 216 216 216zM212.688 116.688c6.25-6.25 16.375-6.25 22.625 0l96 96c6.25 6.25 6.25 16.375 0 22.625l-96 96c-3.125 3.125-7.219 4.687-11.313 4.687s-8.188-1.562-11.312-4.688c-6.25-6.25-6.25-16.375 0-22.625l84.687-84.687-84.688-84.688c-6.249-6.25-6.249-16.374 0.001-22.624z" />
<glyph unicode="&#xe628;" d="M512 224c0 141.391-114.609 256-256 256s-256-114.609-256-256 114.609-256 256-256 256 114.609 256 256zM40 224c0 119.297 96.703 216 216 216s216-96.703 216-216-96.703-216-216-216-216 96.703-216 216zM368 194l-112 112-112-112 32-32 80 80 80-80z" />
<glyph unicode="&#xe629;" d="M512 223.992c0 141.411-114.612 256.024-256.008 256.008-141.394 0-256.008-114.581-255.992-256.008 0-141.379 114.613-256.008 255.992-255.992 141.396-0.016 256.008 114.613 256.008 255.992zM40.002 223.992c0 119.316 96.69 216.007 215.99 216.007 119.317 0 216.008-96.69 216.008-216.007 0-119.269-96.691-215.99-216.008-215.99-119.3 0-215.99 96.722-215.99 215.99zM352.003 240.001l-96.004 112.003-96.002-112.003h48.001v-144.005h96.003v144.005z" />
<glyph unicode="&#xe62a;" d="M256 480c-141.391 0-256-114.609-256-256s114.609-256 256-256 256 114.609 256 256-114.609 256-256 256zM256 8c-119.297 0-216 96.703-216 216s96.703 216 216 216 216-96.703 216-216-96.703-216-216-216zM144 137.5h224l-112 192z" />
<glyph unicode="&#xe62b;" d="M0 224c0-141.391 114.609-256 256-256s256 114.609 256 256-114.609 256-256 256-256-114.609-256-256zM472 224c0-119.297-96.703-216-216-216s-216 96.703-216 216 96.703 216 216 216 216-96.703 216-216zM237.879 321.661l-89.594-154.175c-9.969-16.844-1.938-32.986 17.844-32.986h179.766c19.75 0 27.797 16.143 17.812 32.986l-89.578 152.955c-9.969 16.907-26.281 18.111-36.25 1.22z" />
<glyph unicode="&#xe62c;" d="M512 224c0 141.391-114.609 256-256 256s-256-114.609-256-256 114.609-256 256-256 256 114.609 256 256zM40 224c0 119.297 96.703 216 216 216s216-96.703 216-216-96.703-216-216-216-216 96.703-216 216zM271.969 96v198.406l41.172-38.406 22.859 21.344-80 74.656-80-74.656 22.859-21.344 41.11 38.406v-198.406z" />
<glyph unicode="&#xe62d;" d="M512 224c0 141.391-114.609 256-256 256s-256-114.609-256-256 114.609-256 256-256 256 114.609 256 256zM40 224c0 119.297 96.703 216 216 216s216-96.703 216-216-96.703-216-216-216-216 96.703-216 216zM363.312 180.688c6.25 6.25 6.25 16.375 0 22.625l-96 96c-6.25 6.25-16.375 6.25-22.625 0l-96-96c-3.125-3.125-4.687-7.219-4.687-11.313s1.562-8.188 4.688-11.312c6.25-6.25 16.375-6.25 22.625 0l84.687 84.687 84.688-84.688c6.25-6.249 16.374-6.249 22.624 0.001z" />
<glyph unicode="&#xe62e;" d="M256 480c-141.391 0-256-114.609-256-256s114.609-256 256-256c141.391 0 256 114.609 256 256s-114.609 256-256 256zM256 8c-119.297 0-216 96.703-216 216s96.703 216 216 216 216-96.703 216-216-96.703-216-216-216zM384 224c0 15.719-10.797 29.953-28.953 40.969 5.266 21.25 2.422 38.594-8.531 49.531-7.297 7.312-17.78 11.156-30.297 11.156-6.016 0-12.5-1.078-19.188-2.719-11.031 18.219-25.281 29.063-41.031 29.063s-30-10.844-41.031-29.062c-6.688 1.625-13.188 2.719-19.188 2.719-12.531 0-23-3.859-30.297-11.156-11.125-11.125-13.547-28.844-8.484-49.5-18.188-11.031-29-25.266-29-41 0-15.733 10.812-29.969 29-41-5.062-20.672-2.625-38.392 8.5-49.517 7.281-7.297 17.766-11.155 30.281-11.155 6.016 0 12.5 1.078 19.188 2.719 11.031-18.22 25.281-29.048 41.031-29.048s30 10.828 41.031 29.047c6.672-1.641 13.156-2.719 19.156-2.719 12.53 0 23.016 3.859 30.312 11.156 10.953 10.938 13.797 28.297 8.531 49.531 18.173 11.032 28.97 25.266 28.97 40.985zM288.969 303.688c5.344 2.047 10.562 3.672 15.484 4.625 4.094 0.812 8.078 1.344 11.766 1.344 8.312 0 14.688-2.172 18.984-6.469 6.188-6.172 7.891-17.062 5.156-30.75-0.859-4.312-2.125-8.875-3.875-13.719-0.203-0.562-0.562-1.188-0.781-1.75-2.297-6-5.203-12.094-8.609-18.25-2.703 3.719-5.344 7.438-8.344 11.109-4.875 5.953-10.156 11.797-15.734 17.484-0.625 0.625-1.141 1.312-1.766 1.938-0.641 0.625-1.312 1.188-1.953 1.812-5.734 5.625-11.625 10.812-17.594 15.688-3.641 2.984-7.281 5.844-10.969 8.516 6.235 3.453 12.297 6.172 18.235 8.422zM318.203 224c-4.453-6.562-9.547-13.047-15.016-19.438-4.188-4.906-8.531-9.781-13.25-14.5-4.703-4.703-9.547-9.062-14.453-13.234-6.422-5.484-12.953-10.469-19.5-14.922-6.547 4.453-13.078 9.438-19.516 14.922-4.875 4.172-9.719 8.516-14.406 13.219-4.844 4.828-9.109 9.703-13.25 14.562-5.531 6.516-10.594 12.983-14.906 19.391 4.312 6.391 9.375 12.875 14.906 19.375 4.141 4.875 8.406 9.75 13.25 14.562 4.688 4.719 9.531 9.062 14.438 13.25 6.422 5.469 12.953 10.438 19.484 14.891 6.547-4.453 13.062-9.422 19.484-14.891 4.906-4.188 9.767-8.547 14.47-13.25 4.719-4.719 9.062-9.594 13.25-14.5 5.468-6.406 10.562-12.906 15.015-19.437zM256 336c8.531 0 17.422-6.5 25.219-18.125-8.234-3.281-16.688-7.594-25.219-12.781-8.531 5.172-17 9.5-25.219 12.781 7.781 11.625 16.688 18.125 25.219 18.125zM176.797 303.188c4.297 4.281 10.672 6.469 18.984 6.469 3.688 0 7.656-0.531 11.766-1.344 4.922-0.969 10.141-2.594 15.484-4.625 5.922-2.266 11.984-4.969 18.219-8.422-3.688-2.672-7.344-5.547-10.969-8.516-5.969-4.875-11.844-10.031-17.578-15.656-0.641-0.625-1.328-1.188-1.953-1.844-0.656-0.641-1.25-1.312-1.891-1.969-5.578-5.688-10.812-11.469-15.594-17.297-2.984-3.641-5.766-7.297-8.438-10.969-3.391 6.203-6.266 12.25-8.438 17.984-2.047 5.438-3.641 10.656-4.594 15.5-2.717 13.735-1.045 24.657 5.002 30.689zM162.156 198.75c-11.625 7.797-18.156 16.703-18.156 25.25 0 8.531 6.516 17.438 18.156 25.234 3.25-8.203 7.516-16.672 12.719-25.234-5.203-8.594-9.469-17.047-12.719-25.25zM223.031 144.297c-5.344-2.047-10.562-3.672-15.469-4.641-4.109-0.797-8.078-1.328-11.781-1.328-8.297 0-14.688 2.188-18.969 6.469-6.047 6.047-7.719 16.953-5 30.703 0.953 4.828 2.531 10.047 4.594 15.5 2.156 5.719 5.047 11.766 8.422 17.969 2.672-3.672 5.453-7.328 8.453-10.969 4.766-5.828 10-11.594 15.562-17.281 0.656-0.656 1.25-1.328 1.906-1.984 0.641-0.641 1.312-1.202 1.969-1.844 5.719-5.608 11.594-10.781 17.531-15.641 3.656-2.984 7.312-5.859 11-8.531-6.218-3.453-12.28-6.157-18.218-8.422zM256 112c-8.531 0-17.422 6.5-25.203 18.109 8.219 3.281 16.672 7.608 25.188 12.797 8.531-5.203 16.984-9.531 25.219-12.812-7.782-11.594-16.673-18.094-25.204-18.094zM335.188 144.797c-4.297-4.297-10.688-6.469-19-6.469-3.688 0-7.655 0.531-11.75 1.328-4.922 0.969-10.125 2.594-15.483 4.641-5.922 2.25-11.984 4.969-18.234 8.422 3.703 2.672 7.345 5.547 11 8.531 5.953 4.875 11.845 10.047 17.578 15.672 0.642 0.641 1.312 1.188 1.953 1.828 0.625 0.625 1.156 1.312 1.767 1.938 5.577 5.688 10.858 11.517 15.719 17.47 3 3.672 5.655 7.391 8.358 11.125 3.392-6.173 6.297-12.267 8.578-18.25 0.234-0.595 0.578-1.203 0.797-1.781 1.75-4.812 3-9.375 3.875-13.688 2.732-13.689 1.029-24.595-5.158-30.767zM349.75 198.703c-3.328 8.328-7.719 16.797-12.875 25.297 5.156 8.5 9.562 16.969 12.875 25.297 11.688-7.797 18.25-16.735 18.25-25.297s-6.562-17.5-18.25-25.297zM288 224c0-17.672-14.328-32-32-32-17.656 0-32 14.328-32 32 0 17.656 14.344 32 32 32 17.672 0 32-14.344 32-32z" />
<glyph unicode="&#xe62f;" d="M256 480c-141.391 0-256-114.609-256-256s114.609-256 256-256 256 114.609 256 256-114.609 256-256 256zM256 8c-119.297 0-216 96.703-216 216s96.703 216 216 216 216-96.703 216-216-96.703-216-216-216zM128 352h64v-64h-64v64zM368 352v-32h-16v32h-16v-16h-16v16h-16v-32h-16v32h-16v-16h-16v16h-16v-32h-16v32h-16v-64h160v-176h-176v160h-64v-16h16v-16h-16v-16h32v-16h-32v-16h16v-16h-16v-16h32v-16h-32v-16h16v-16h-16v-16h256v256z" />
<glyph unicode="&#xe630;" d="M256 480c-141.391 0-256-114.609-256-256s114.609-256 256-256 256 114.609 256 256-114.609 256-256 256zM256 8c-119.297 0-216 96.703-216 216s96.703 216 216 216 216-96.703 216-216-96.703-216-216-216zM336 144v160l-96-80zM144 224l96-80v160z" />
<glyph unicode="&#xe631;" d="M256 480c-141.391 0-256-114.609-256-256s114.609-256 256-256 256 114.609 256 256-114.609 256-256 256zM256 8c-119.297 0-216 96.703-216 216s96.703 216 216 216 216-96.703 216-216-96.703-216-216-216zM368 271.5h-16.5v-160h16.5c8.844 0 15.5 7.656 15.5 16.5v128c0 8.844-6.656 15.5-15.5 15.5zM175.5 271.5h160v-160h-160v160zM159.5 271.5h-15.5c-8.836 0-16.5-6.656-16.5-15.5v-128c0-8.844 7.664-16.5 16.5-16.5h15.5v160zM288 335.5h-64c-8.836 0-16.5-6.656-16.5-15.5v-32.5h16v24.5c0 4.422 4.078 7.5 8.5 7.5h48c4.422 0 7.5-3.078 7.5-7.5v-24.5h16v32.5c0 8.844-6.656 15.5-15.5 15.5z" />
<glyph unicode="&#xe632;" d="M256 480c-141.391 0-256-114.609-256-256s114.609-256 256-256 256 114.609 256 256-114.609 256-256 256zM256 8c-119.297 0-216 96.703-216 216s96.703 216 216 216 216-96.703 216-216-96.703-216-216-216zM165.5 314.516c-50-49.984-50-131.047 0-181.031 49.969-49.984 131.031-49.984 181.016 0s49.984 131.047 0 181.031-131.047 49.984-181.016 0zM188.125 291.891c33.547 33.547 85.844 36.781 123.297 10.172l-133.484-133.485c-26.594 37.453-23.376 89.766 10.187 123.313zM323.875 156.125c-33.547-33.562-85.828-36.781-123.297-10.172l133.469 133.484c26.609-37.468 23.391-89.765-10.172-123.312z" />
<glyph unicode="&#xe633;" d="M256 480c-141.391 0-256-114.609-256-256s114.609-256 256-256 256 114.609 256 256-114.609 256-256 256zM256 8c-119.297 0-216 96.703-216 216s96.703 216 216 216 216-96.703 216-216-96.703-216-216-216zM144 112h32v224h-32v-224zM192 112h32v32h-32v-32zM240 112h32v112h-32v-112zM288 112h32v176h-32v-176zM336 192v-80h32v80h-32z" />
<glyph unicode="&#xe634;" d="M256 480c-141.391 0-256-114.609-256-256s114.609-256 256-256 256 114.609 256 256-114.609 256-256 256zM256 8c-119.297 0-216 96.703-216 216s96.703 216 216 216 216-96.703 216-216-96.703-216-216-216zM368 192c0 61.75-50.25 112-112 112-61.758 0-112-50.25-112-112h-16v-48h48v48h-16c0 52.938 43.062 96 96 96s96-43.062 96-96h-16v-48h48v48h-16zM160 160h-16v16h16v-16zM368 160h-16v16h16v-16z" />
<glyph unicode="&#xe635;" d="M256 480c-141.391 0-256-114.609-256-256s114.609-256 256-256 256 114.609 256 256-114.609 256-256 256zM256 8c-119.297 0-216 96.703-216 216s96.703 216 216 216 216-96.703 216-216-96.703-216-216-216z" />
<glyph unicode="&#xe636;" d="M256 480c-141.391 0-256-114.609-256-256s114.609-256 256-256 256 114.609 256 256-114.609 256-256 256zM256 8c-119.297 0-216 96.703-216 216s96.703 216 216 216 216-96.703 216-216-96.703-216-216-216zM151.5 295.5h192v-32h-192v32zM151.5 231.5h192v-32h-192v32zM151.5 167.5h192v-32h-192v32z" />
<glyph unicode="&#xe637;" d="M256 480c-141.391 0-256-114.609-256-256s114.609-256 256-256 256 114.609 256 256-114.609 256-256 256zM256 8c-119.297 0-216 96.703-216 216s96.703 216 216 216 216-96.703 216-216-96.703-216-216-216zM208 208.5h43.203l-43.203-112.188 96 144.188h-42.344l42.344 111.812z" />
<glyph unicode="&#xe638;" d="M256 480c-141.391 0-256-114.609-256-256s114.609-256 256-256 256 114.609 256 256-114.609 256-256 256zM256 8c-119.297 0-216 96.703-216 216s96.703 216 216 216 216-96.703 216-216-96.703-216-216-216zM271.5 319.5h80v-80h32v112h-112zM159.5 239.5v80h80v32h-112v-112zM239.5 127.5h-80v80h-32v-112h112zM351.5 207.5v-80h-80v-32h112v112zM239.5 287.5h32v-128h-32v128zM191.5 239.5h128v-32h-128v32z" />
<glyph unicode="&#xe639;" d="M256 480c-141.391 0-256-114.609-256-256s114.609-256 256-256 256 114.609 256 256-114.609 256-256 256zM256 8c-119.297 0-216 96.703-216 216s96.703 216 216 216 216-96.703 216-216-96.703-216-216-216zM272 320h80v-80h32v112h-112zM160 240v80h80v32h-112v-112zM240 128h-80v80h-32v-112h112zM352 208v-80h-80v-32h112v112z" />
<glyph unicode="&#xe63a;" d="M256 480c-141.391 0-256-114.609-256-256s114.609-256 256-256c141.391 0 256 114.609 256 256s-114.609 256-256 256zM256 8c-119.297 0-216 96.703-216 216s96.703 216 216 216 216-96.703 216-216-96.703-216-216-216zM272 320h80v-80h32v112h-112zM160 240v80h80v32h-112v-112zM240 128h-80v80h-32v-112h112zM352 208v-80h-80v-32h112v112zM222.064 167.435l-22.625 22.625 90.498 90.498 22.625-22.625-90.498-90.498zM289.94 167.435l-90.498 90.498 22.625 22.625 90.498-90.498-22.625-22.625z" />
<glyph unicode="&#xe63b;" d="M256 480c-141.391 0-256-114.609-256-256s114.609-256 256-256c141.391 0 256 114.609 256 256s-114.609 256-256 256zM256 8c-119.297 0-216 96.703-216 216s96.703 216 216 216 216-96.703 216-216-96.703-216-216-216zM272 320h80v-80h32v112h-112zM160 240v80h80v32h-112v-112zM240 128h-80v80h-32v-112h112zM352 208v-80h-80v-32h112v112zM192 240h128v-32h-128v32z" />
<glyph unicode="&#xe63c;" d="M256 480c-141.391 0-256-114.609-256-256s114.609-256 256-256 256 114.609 256 256-114.609 256-256 256zM256 8c-119.297 0-216 96.703-216 216s96.703 216 216 216 216-96.703 216-216-96.703-216-216-216zM192 272h128v-96h-128v96zM336 288h16v-128h-16v128zM368 320h16v-192h-16v192zM160 288h16v-128h-16v128zM128 320h16v-192h-16v192z" />
<glyph unicode="&#xe63d;" d="M256 480c-141.391 0-256-114.609-256-256s114.609-256 256-256 256 114.609 256 256-114.609 256-256 256zM256 8c-119.297 0-216 96.703-216 216s96.703 216 216 216 216-96.703 216-216-96.703-216-216-216zM223.070 162.125c20.578 15.703 48.273 41.188 77.195 71.852 53.297 56.531 90.359 108.906 82.734 116.969-7.609 8.094-57-31.188-110.328-87.719-29.68-31.469-54.281-61.633-68.969-83.602-7.141-0.391-35.023-3.75-39.617-32.531 0 0-19.016-48.188-33.75-50.297-14.586-2.109 43.75 0.312 51.328 3.047 7.485 2.687 45.587 5.922 41.407 62.281z" />
<glyph unicode="&#xe63e;" d="M256 480c-141.391 0-256-114.609-256-256s114.609-256 256-256 256 114.609 256 256-114.609 256-256 256zM256 8c-119.297 0-216 96.703-216 216s96.703 216 216 216 216-96.703 216-216-96.703-216-216-216zM256 352c-70.695 0-128-57.312-128-128s57.305-128 128-128c70.688 0 128 57.312 128 128s-57.312 128-128 128zM320 208h-48v-48h-32v48h-48v32h48v48h32v-48h48v-32z" />
<glyph unicode="&#xe63f;" d="M256 480c-141.391 0-256-114.609-256-256s114.609-256 256-256 256 114.609 256 256-114.609 256-256 256zM256 8c-119.297 0-216 96.703-216 216s96.703 216 216 216 216-96.703 216-216-96.703-216-216-216zM256 352c-70.688 0-128-57.312-128-128s57.312-128 128-128 128 57.312 128 128-57.312 128-128 128zM240 160l-48 48 22.398 25.594 25.602-25.594 72 80 24-25.594-96-102.406z" />
<glyph unicode="&#xe640;" d="M256 480c-141.391 0-256-114.609-256-256s114.609-256 256-256 256 114.609 256 256-114.609 256-256 256zM256 8c-119.297 0-216 96.703-216 216s96.703 216 216 216 216-96.703 216-216-96.703-216-216-216zM256 352c-70.695 0-128-57.312-128-128s57.305-128 128-128c70.688 0 128 57.312 128 128s-57.312 128-128 128zM312.562 190.062l-22.625-22.625-33.937 33.938-33.938-33.938-22.633 22.625 33.938 33.938-33.938 33.938 22.633 22.625 33.938-33.938 33.938 33.938 22.625-22.625-33.938-33.938 33.937-33.938z" />
<glyph unicode="&#xe641;" d="M256 480c-141.391 0-256-114.609-256-256s114.609-256 256-256 256 114.609 256 256-114.609 256-256 256zM256 8c-119.297 0-216 96.703-216 216s96.703 216 216 216 216-96.703 216-216-96.703-216-216-216zM259.203 248.562c-3.391 0-6.734-1.062-10.078-3.234-3.312-2.156-6.312-4.891-8.938-8.188-2.625-3.312-4.75-6.891-6.312-10.781-1.578-3.922-2.359-7.609-2.359-11.094 0-2.156 0.297-4.281 0.844-6.391 0.578-2.125 1.453-4 2.672-5.656 1.172-1.703 2.703-3.062 4.594-4.078 1.875-1.016 4.156-1.516 6.781-1.516 4.75 0 9.344 1.594 13.719 4.75 4.391 3.219 7.625 7.75 9.609 13.625 1.016 3.109 1.797 5.688 2.344 7.734 0.547 2.031 1.031 3.688 1.312 4.953 0.359 1.25 0.516 2.203 0.547 2.875 0.094 0.672 0.109 1.234 0.109 1.703 0 4.562-1.438 8.25-4.312 11.062-2.891 2.846-6.407 4.236-10.532 4.236zM256 352c-70.703 0-128-57.312-128-128s57.297-128 128-128c70.688 0 128 57.312 128 128s-57.312 128-128 128zM316.328 214.891c-2.453-6-5.719-11.031-9.781-15.125-4.062-4.047-8.734-7.141-13.953-9.156-5.203-2.078-10.578-3.094-16.078-3.094-3.266 0-5.875 1-7.828 2.984-1.953 2-3.031 4.375-3.281 7.125-2.625-3.609-5.594-6.156-8.828-7.75-3.297-1.531-7.109-2.359-11.484-2.359-4.031 0-7.641 0.766-10.844 2.266-3.188 1.484-5.875 3.484-8.094 5.969-2.172 2.406-3.875 5.25-5.094 8.359-1.188 3.125-1.781 6.281-1.781 9.516 0 5.312 1 10.625 2.938 16.062 1.953 5.375 4.641 10.266 8.094 14.641 3.438 4.375 7.609 7.969 12.5 10.734 4.906 2.75 10.312 4.125 16.188 4.125 2.891 0 5.469-0.484 7.719-1.438s4.156-2.125 5.75-3.5c1.562-1.375 2.875-2.797 3.938-4.25 1.047-1.438 1.812-2.938 2.188-4.016l3.778 10.016h11.484l-14.719-48.531c-0.641-2.188-0.922-3.812-0.922-5.109 0-2.984 1.203-4.438 3.766-4.438 1.484 0 3.703 0.453 6.672 1.391 2.922 0.906 5.906 2.703 8.906 5.422 3.016 2.656 5.641 6.391 7.938 11.141 2.25 4.75 3.406 11.016 3.406 18.828 0 6.359-1.312 12.172-3.938 17.484-2.703 5.25-6.234 9.812-10.688 13.578-4.453 3.797-9.547 6.734-15.312 8.812-5.75 2.109-11.75 3.172-17.891 3.172-8.141 0-15.719-1.438-22.672-4.25-6.969-2.812-13.047-6.75-18.25-11.797-5.219-5.016-9.281-11.016-12.25-17.906-2.938-6.906-4.422-14.359-4.422-22.422 0-7.656 1.516-14.656 4.625-20.969 3.078-6.281 7.141-11.656 12.234-16.125 5.078-4.422 10.906-7.812 17.5-10.25 6.594-2.406 13.438-3.625 20.594-3.625 9.672 0 18.188 2.391 25.516 6.109 7.329 3.751 13.204 15.485 17.548 15.485h11.5c-2.109 0-5.141-10.359-9.078-14.219-4-3.859-8.484-7.281-13.578-9.875-5.078-2.562-10.578-4.656-16.562-5.906-5.969-1.25-12.031-1.938-18.156-1.938-8.172 0-16.078 1.469-23.719 4.469-7.656 3-14.438 7.203-20.312 12.594-5.906 5.391-10.656 11.797-14.234 19.266-3.547 7.406-5.359 15.578-5.359 24.484 0 10.312 1.891 19.609 5.656 27.875 3.75 8.297 8.812 15.328 15.156 21.141 6.344 5.844 13.656 10.312 22.016 13.422 8.359 3.125 17.141 4.688 26.453 4.688 7.516 0 14.828-1.297 21.906-3.875 7.078-2.562 13.344-6.188 18.812-10.797 5.469-4.641 9.812-10.141 13.078-16.578 3.266-6.391 4.922-13.438 4.922-21.141-0.001-7.798-1.267-14.688-3.673-20.719z" />
<glyph unicode="&#xe642;" d="M256 482c-141.391 0-256-114.609-256-256s114.609-256 256-256 256 114.609 256 256-114.609 256-256 256zM256 10c-119.297 0-216 96.703-216 216s96.703 216 216 216 216-96.703 216-216-96.703-216-216-216zM256 354c-70.688 0-128-57.312-128-128s57.312-128 128-128 128 57.312 128 128-57.312 128-128 128zM256 162c-8.844 0-16 7.156-16 16s7.156 16 16 16 16-7.156 16-16-7.156-16-16-16zM264 210h-16l-8 80h32l-8-80z" />
<glyph unicode="&#xe643;" d="M256 480c-141.391 0-256-114.609-256-256s114.609-256 256-256 256 114.609 256 256-114.609 256-256 256zM256 8c-119.297 0-216 96.703-216 216s96.703 216 216 216 216-96.703 216-216-96.703-216-216-216zM256 352c-70.695 0-128-57.312-128-128s57.305-128 128-128c70.688 0 128 57.312 128 128s-57.312 128-128 128zM320 208h-128v32h128v-32z" />
<glyph unicode="&#xe644;" d="M256 480c-141.391 0-256-114.609-256-256s114.609-256 256-256 256 114.609 256 256-114.609 256-256 256zM256 8c-119.297 0-216 96.703-216 216s96.703 216 216 216 216-96.703 216-216-96.703-216-216-216zM256 352c-70.688 0-128-57.312-128-128s57.312-128 128-128 128 57.312 128 128-57.312 128-128 128zM251.375 158c-10.172 0-17.078 7.484-17.078 17.469 0 10.344 7.094 17.453 17.078 17.453 10.344 0 17.062-7.109 17.281-17.453 0-9.985-6.718-17.469-17.281-17.469zM278.188 229.578c-6.906-7.859-6.188-15.359-6.188-23.984v2.406h-32.719l-0.188 2.062c-0.578 9.781 2.688 18.297 11.312 28.469 6.156 7.484 11.125 13.078 11.125 19.422 0 6.703-4.406 10.953-14 11.141-6.328 0-14-2.484-19-5.938l-6.516 20.812c7.094 4.031 18.422 7.828 32.047 7.828 25.312 0 38.828-14.016 38.828-29.953 0.002-14.593-7.42-24.218-14.701-32.265z" />
<glyph unicode="&#xe645;" d="M256 480c-141.391 0-256-114.609-256-256s114.609-256 256-256 256 114.609 256 256-114.609 256-256 256zM256 8c-119.297 0-216 96.703-216 216s96.703 216 216 216 216-96.703 216-216-96.703-216-216-216zM256 256c-26.508 0-48-21.5-48-48 0-26.516 21.492-48 48-48 26.516 0 48 21.484 48 48 0 26.5-21.484 48-48 48zM368 288h-71.922c-3.641 0-7.312 14.547-8.078 16.078-1.594 3.203-7.156 15.922-16 15.922h-32c-8.836 0-14.398-12.719-16-15.922-0.766-1.531-4.438-16.078-8.078-16.078h-71.922c-8.836 0-16-7.234-16-16.062v-128.016c0-8.844 7.164-15.922 16-15.922h224c8.844 0 16 7.078 16 15.922v128.016c0 8.828-7.156 16.062-16 16.062zM256 144c-35.336 0-64 28.641-64 64 0 35.344 28.664 64 64 64 35.359 0 64-28.656 64-64 0-35.359-28.641-64-64-64z" />
<glyph unicode="&#xe646;" d="M256 480c-141.391 0-256-114.609-256-256s114.609-256 256-256 256 114.609 256 256-114.609 256-256 256zM256 8c-119.297 0-216 96.703-216 216s96.703 216 216 216 216-96.703 216-216-96.703-216-216-216zM256 352c-70.688 0-128-57.312-128-128s57.312-128 128-128 128 57.312 128 128-57.312 128-128 128zM256 160c-35.344 0-64 28.688-64 64 0 35.344 28.656 64 64 64 35.312 0 64-28.656 64-64 0-35.312-28.688-64-64-64zM256 262c-20.953 0-38-17.047-38-38s17.047-38 38-38 38 17.047 38 38-17.047 38-38 38zM256 208c-8.844 0-16 7.156-16 16s7.156 16 16 16 16-7.156 16-16-7.156-16-16-16z" />
<glyph unicode="&#xe647;" d="M256 480c-141.391 0-256-114.609-256-256s114.609-256 256-256 256 114.609 256 256-114.609 256-256 256zM256 8c-119.297 0-216 96.703-216 216s96.703 216 216 216 216-96.703 216-216-96.703-216-216-216zM383.5 343.5c0 4.418-3.582 8-8 8h-240c-4.418 0-8-3.582-8-8v-240c0-4.418 3.582-8 8-8h240c4.418 0 8 3.582 8 8v240zM367.5 119.5c0-4.418-3.582-8-8-8h-208c-4.418 0-8 3.582-8 8v208c0 4.418 3.582 8 8 8h208c4.418 0 8-3.582 8-8v-208zM321.562 192.422l-45.265 95.578-48.469-51.188-40.906 43.188-10.922-11.547 51.828-54.719 44.234 46.719 35.734-75.438c-1.578-2.562-2.703-5.422-2.703-8.688 0-9.031 6.906-16.328 15.453-16.328s15.454 7.298 15.454 16.329c0 8.641-6.406 15.516-14.438 16.094z" />
<glyph unicode="&#xe648;" d="M256 480c-141.391 0-256-114.609-256-256s114.609-256 256-256 256 114.609 256 256-114.609 256-256 256zM256 8c-119.297 0-216 96.703-216 216s96.703 216 216 216 216-96.703 216-216-96.703-216-216-216zM384 272.172c0 44.078-42.984 79.828-96 79.828-53 0-96-35.75-96-79.828 0-44.094 43-79.828 96-79.828 17.484 0 38.406 7.766 38.406 7.766l52.812-24.062-11.234 51.281c0-0.001 16.016 25.327 16.016 44.843zM327.062 217.406l-6.219-2.281c-5.094-1.875-20.953-6.766-32.844-6.766-44.109 0-80 28.625-80 63.812s35.891 63.812 80 63.812 79.984-28.625 79.984-63.812c0-10.734-8.266-27.953-13.516-36.297l-3.5-5.547 5.781-26.453-29.686 13.532zM224 128.312c-11.891 0-27.75 4.891-32.859 6.766l-6.172 2.281-29.719-13.531 5.781 26.453-3.5 5.547c-5.234 8.328-13.531 25.563-13.531 36.297 0 22.375 14.578 42.016 36.5 53.406-1.75 5.188-3.062 10.531-3.781 16.016-29.063-13.703-48.719-39.641-48.719-69.422 0-19.5 16-44.844 16-44.844l-11.219-51.281 52.812 24.062c0 0 20.922-7.766 38.406-7.766 48.422 0 88.375 30.266 94.938 68.734-5-1.344-10.953-2.641-17.266-3.547-8.359-28.124-39.89-49.171-77.671-49.171z" />
<glyph unicode="&#xe649;" d="M211.344 173.297l-51.344 50.703-32-32 83.414-80 172.586 192-32.297 32zM256 480c-141.391 0-256-114.609-256-256s114.609-256 256-256 256 114.609 256 256-114.609 256-256 256zM256 8c-119.297 0-216 96.703-216 216s96.703 216 216 216 216-96.703 216-216-96.703-216-216-216z" />
<glyph unicode="&#xe64a;" d="M256 480c-141.391 0-256-114.609-256-256s114.609-256 256-256 256 114.609 256 256-114.609 256-256 256zM256 8c-119.297 0-216 96.703-216 216s96.703 216 216 216 216-96.703 216-216-96.703-216-216-216zM288 352c-53.016 0-96-42.984-96-96 0-0.531 0.047-1.047 0.062-1.609-36.531-7.375-64.062-39.657-64.062-78.391 0-44.188 35.797-80 80-80 38.719 0 71.016 27.531 78.422 64.094 0.531-0.016 1.047-0.094 1.578-0.094 53.016 0 96 42.984 96 96s-42.984 96-96 96zM208 112c-35.281 0-64 28.719-64 64 0 30.359 21.281 55.734 49.719 62.25 7.25-38.766 37.766-69.281 76.531-76.531-6.531-28.438-31.906-49.719-62.25-49.719zM209.672 239.844c33.906-0.875 61.297-28.234 62.156-62.203-31.14 6.437-55.781 31.015-62.156 62.203zM288 176c0 44.172-35.797 80-80 80 0 44.109 35.906 80 80 80s80-35.891 80-80-35.906-80-80-80zM160 256c17.656 0 32 14.344 32 32s-14.344 32-32 32-32-14.344-32-32 14.344-32 32-32zM160 304c8.812 0 16-7.188 16-16s-7.188-16-16-16-16 7.188-16 16 7.188 16 16 16z" />
<glyph unicode="&#xe64b;" d="M256 480c-141.391 0-256-114.609-256-256s114.609-256 256-256 256 114.609 256 256-114.609 256-256 256zM256 8c-119.297 0-216 96.703-216 216s96.703 216 216 216 216-96.703 216-216-96.703-216-216-216zM256 352c-70.688 0-128-57.312-128-128s57.312-128 128-128 128 57.312 128 128-57.312 128-128 128zM256 120c-57.438 0-104 46.578-104 104 0 57.438 46.562 104 104 104 57.422 0 104-46.562 104-104 0-57.422-46.578-104-104-104zM256 208c-8.844 0-16 7.156-16 16s7.156 16 16 16 16-7.156 16-16-7.156-16-16-16zM246.062 222.625l11.313 11.313 37.375-37.36-11.312-11.328zM192.469 276.219l11.312 11.328 62.172-62.172-11.328-11.313z" />
<glyph unicode="&#xe64c;" d="M358.719 207.266c5.765 9.609 9.281 20.718 9.281 32.734 0 35.344-28.656 64-64 64-29.375 0-53.859-19.906-61.391-46.875-8.734 9.125-20.984 14.875-34.609 14.875-26.5 0-48-21.5-48-48 0-5.75 1.188-11.203 3.031-16.312-1 0.094-2 0.312-3.031 0.312-17.672 0-32-22.328-32-40s14.328-40 32-40h192c17.672 0 32 22.328 32 40 0 15.359-10.844 36.172-25.281 39.266zM256 480c-141.391 0-256-114.609-256-256s114.609-256 256-256 256 114.609 256 256-114.609 256-256 256zM256 8c-119.297 0-216 96.703-216 216s96.703 216 216 216 216-96.703 216-216-96.703-216-216-216z" />
<glyph unicode="&#xe64d;" d="M256 480c-141.391 0-256-114.609-256-256s114.609-256 256-256 256 114.609 256 256-114.609 256-256 256zM256 8c-119.297 0-216 96.703-216 216s96.703 216 216 216 216-96.703 216-216-96.703-216-216-216zM358.719 239.266c5.765 9.609 9.281 20.718 9.281 32.734 0 35.344-28.656 64-64 64-29.375 0-53.859-19.906-61.391-46.875-8.734 9.133-20.984 14.875-34.609 14.875-26.5 0-48-21.492-48-48 0-5.75 1.188-11.203 3.031-16.312-1 0.094-2 0.312-3.031 0.312-17.672 0-32-22.328-32-40s14.328-40 32-40h101.594c9 32 28.094 40 50.406 40 21.656 0 40.219-8.406 49.531-26.391 12.985 4.079 22.469 18.063 22.469 32.391 0 15.359-10.844 30.172-25.281 33.266zM312 192c-22.094 0-40-17.906-40-40s17.906-40 40-40 40 17.906 40 40-17.906 40-40 40zM336 144h-16v-16h-16v16h-16v16h16v16h16v-16h16v-16z" />
<glyph unicode="&#xe64e;" d="M256 480c-141.391 0-256-114.609-256-256s114.609-256 256-256 256 114.609 256 256-114.609 256-256 256zM256 8c-119.297 0-216 96.703-216 216s96.703 216 216 216 216-96.703 216-216-96.703-216-216-216zM358.719 239.266c5.765 9.609 9.281 20.718 9.281 32.734 0 35.344-28.656 64-64 64-29.375 0-53.859-19.906-61.391-46.875-8.734 9.133-20.984 14.875-34.609 14.875-26.5 0-48-21.492-48-48 0-5.75 1.188-11.203 3.031-16.312-1 0.094-2 0.312-3.031 0.312-17.672 0-32-22.328-32-40s14.328-40 32-40h101.594c9 32 28.094 40 50.406 40 21.656 0 40.219-8.406 49.531-26.391 12.985 4.079 22.469 18.063 22.469 32.391 0 15.359-10.844 30.172-25.281 33.266zM312 192c-22.094 0-40-17.906-40-40s17.906-40 40-40 40 17.906 40 40-17.906 40-40 40zM312 121.594l-19.203 22.406h11.203v32h16v-32h11.203l-19.203-22.406z" />
<glyph unicode="&#xe64f;" d="M256 480c-141.391 0-256-114.609-256-256s114.609-256 256-256 256 114.609 256 256-114.609 256-256 256zM256 8c-119.297 0-216 96.703-216 216s96.703 216 216 216 216-96.703 216-216-96.703-216-216-216zM358.719 239.266c5.765 9.609 9.281 20.718 9.281 32.734 0 35.344-28.656 64-64 64-29.375 0-53.859-19.906-61.391-46.875-8.734 9.133-20.984 14.875-34.609 14.875-26.5 0-48-21.492-48-48 0-5.75 1.188-11.203 3.031-16.312-1 0.094-2 0.312-3.031 0.312-17.672 0-32-22.328-32-40s14.328-40 32-40h101.594c9 32 28.094 40 50.406 40 21.656 0 40.219-8.406 49.531-26.391 12.985 4.079 22.469 18.063 22.469 32.391 0 15.359-10.844 30.172-25.281 33.266zM312 192c-22.094 0-40-17.906-40-40s17.906-40 40-40 40 17.906 40 40-17.906 40-40 40zM336 144h-48v16h48v-16z" />
<glyph unicode="&#xe650;" d="M256 480c-141.391 0-256-114.609-256-256s114.609-256 256-256 256 114.609 256 256-114.609 256-256 256zM256 8c-119.297 0-216 96.703-216 216s96.703 216 216 216 216-96.703 216-216-96.703-216-216-216zM358.719 239.266c5.765 9.609 9.281 20.718 9.281 32.734 0 35.344-28.656 64-64 64-29.375 0-53.859-19.906-61.391-46.875-8.734 9.133-20.984 14.875-34.609 14.875-26.5 0-48-21.492-48-48 0-5.75 1.188-11.203 3.031-16.312-1 0.094-2 0.312-3.031 0.312-17.672 0-32-22.328-32-40s14.328-40 32-40h101.594c9 32 28.094 40 50.406 40 21.656 0 40.219-8.406 49.531-26.391 12.985 4.079 22.469 18.063 22.469 32.391 0 15.359-10.844 30.172-25.281 33.266zM312 112c22.094 0 40 17.906 40 40s-17.906 40-40 40-40-17.906-40-40 17.906-40 40-40zM312 182.406l19.203-22.406h-11.203v-32h-16v32h-11.203l19.203 22.406z" />
<glyph unicode="&#xe651;" d="M256 480c-141.391 0-256-114.609-256-256s114.609-256 256-256 256 114.609 256 256-114.609 256-256 256zM256 8c-119.297 0-216 96.703-216 216s96.703 216 216 216 216-96.703 216-216-96.703-216-216-216zM256 143.781c-30.031 0-61.438 6.328-79.844 19.703 0-0.219-0.156-0.438-0.156-0.641 0-3.359 0-15.719 0-19.062 0-17.562 35.812-31.781 80-31.781s80 14.219 80 31.781c0 3.344 0 15.703 0 19.062 0 0.203-0.156 0.422-0.156 0.641-18.406-13.375-49.828-19.703-79.844-19.703zM256 191.453c-30.031 0-61.438 6.312-79.844 19.688 0-0.219-0.156-0.422-0.156-0.641 0-3.359 0-15.703 0-19.047 0-17.562 35.812-31.797 80-31.797s80 14.234 80 31.797c0 3.344 0 15.688 0 19.047 0 0.219-0.156 0.422-0.156 0.641-18.406-13.375-49.828-19.688-79.844-19.688zM176 257.344c0-4.031 0-15.078 0-18.25 0-17.562 35.812-31.781 80-31.781s80 14.219 80 31.781c0 3.172 0 14.219 0 18.25-18.375-13.469-49.891-19.844-80-19.844s-61.625 6.375-80 19.844zM256 336c-44.188 0-80-14.219-80-31.781 0-3.344 0-15.703 0-19.062 0-17.531 35.812-31.766 80-31.766s80 14.234 80 31.766c0 3.359 0 15.719 0 19.062 0 17.562-35.812 31.781-80 31.781z" />
<glyph unicode="&#xe652;" d="M256 480c-141.391 0-256-114.609-256-256s114.609-256 256-256 256 114.609 256 256-114.609 256-256 256zM256 8c-119.297 0-216 96.703-216 216s96.703 216 216 216 216-96.703 216-216-96.703-216-216-216zM256 320c-61.859 0-112-37.383-112-83.469 0-20.531 15.547-43.906 32-58.453l-16-50.078 48.625 32.953c14.406-5.031 30.406-7.906 47.375-7.906 61.859 0 112 37.359 112 83.484 0 46.086-50.141 83.469-112 83.469z" />
<glyph unicode="&#xe653;" d="M256 480c-141.391 0-256-114.609-256-256s114.609-256 256-256 256 114.609 256 256-114.609 256-256 256zM256 8c-119.297 0-216 96.703-216 216s96.703 216 216 216 216-96.703 216-216-96.703-216-216-216zM310.875 225.266c-40.438 0-73.172-22.078-73.172-49.234 0-12.094 10.172-25.875 20.922-34.469l-10.437-29.563 31.703 19.469c9.453-2.969 19.891-4.656 30.984-4.656 40.391 0 73.125 22 73.125 49.219 0 27.156-32.734 49.234-73.125 49.234zM256 336c-70.688 0-128-40.234-128-89.891 0-22.062 17.781-47.234 36.562-62.922l-18.266-53.969 55.547 35.562c7.25-2.375 14.938-4.25 22.844-5.656-3.234 6.344-5.25 12.938-5.25 19.125 0 35.484 40.938 64.219 91.438 64.219 27.062 0 51.188-8.422 67.938-21.578 3.312 8 5.188 16.469 5.188 25.219-0.001 49.657-57.313 89.891-128.001 89.891z" />
<glyph unicode="&#xe654;" d="M256 480c-141.391 0-256-114.609-256-256s114.609-256 256-256 256 114.609 256 256-114.609 256-256 256zM256 8c-119.297 0-216 96.703-216 216s96.703 216 216 216 216-96.703 216-216-96.703-216-216-216zM224.391 255.531l6.968 27.828-87 52.203 52.188-87zM315.281 248.828l51.844 87.172-86.625-52.406 7-27.938zM287.688 192.547l-6.86-27.891 87.172-51.875-52.531 86.828zM196.547 199.328l-52.188-86.984 87.188 52.344-7.031 27.671zM256 352l-25.594-102.391-102.406-25.609 102.5-25.625 26-102.375 25.234 102.547 102.266 25.953-102.422 25.203-25.578 102.297zM256 208c-8.828 0-16 7.172-16 16s7.172 16 16 16 16-7.172 16-16-7.172-16-16-16z" />
<glyph unicode="&#xe655;" d="M256 480c-141.391 0-256-114.609-256-256s114.609-256 256-256 256 114.609 256 256-114.609 256-256 256zM256 8c-119.297 0-216 96.703-216 216s96.703 216 216 216 216-96.703 216-216-96.703-216-216-216zM256 352c-70.695 0-128-57.312-128-128s57.305-128 128-128c70.688 0 128 57.312 128 128s-57.312 128-128 128zM256 112c-61.758 0-112 50.25-112 112s50.242 112 112 112c61.75 0 112-50.25 112-112s-50.25-112-112-112zM192 160l80 48 48 80-80-48-48-80zM256 232c4.422 0 8-3.578 8-8s-3.578-8-8-8-8 3.578-8 8 3.578 8 8 8z" />
<glyph unicode="&#xe656;" d="M256 480c-141.391 0-256-114.609-256-256s114.609-256 256-256 256 114.609 256 256-114.609 256-256 256zM256 8c-119.297 0-216 96.703-216 216s96.703 216 216 216 216-96.703 216-216-96.703-216-216-216zM192 272h128v-96h-128v96zM144 192l32 32-32 32zM368 192v64l-32.016-32zM287.969 320h-64.016l32-32zM223.938 128h64.031l-32 32z" />
<glyph unicode="&#xe657;" d="M256 480c-141.391 0-256-114.609-256-256s114.609-256 256-256 256 114.609 256 256-114.609 256-256 256zM256 8c-119.297 0-216 96.703-216 216s96.703 216 216 216 216-96.703 216-216-96.703-216-216-216zM192 272h128v-96h-128v96zM144 191.953l32 32-32 32.016zM368 191.953v64.016l-32.016-32.016z" />
<glyph unicode="&#xe658;" d="M256 480c-141.391 0-256-114.609-256-256s114.609-256 256-256 256 114.609 256 256-114.609 256-256 256zM256 8c-119.297 0-216 96.703-216 216s96.703 216 216 216 216-96.703 216-216-96.703-216-216-216zM192 272h128v-96h-128v96zM288 320h-64l32-32zM224 128h64l-32 32.031z" />
<glyph unicode="&#xe659;" d="M256 480c-141.391 0-256-114.609-256-256s114.609-256 256-256 256 114.609 256 256-114.609 256-256 256zM256 8c-119.297 0-216 96.703-216 216s96.703 216 216 216 216-96.703 216-216-96.703-216-216-216zM144 288h160v-192h-160v192zM368 352h-160v-48h112v-144h48z" />
<glyph unicode="&#xe65a;" d="M256 480c-141.391 0-256-114.609-256-256s114.609-256 256-256 256 114.609 256 256-114.609 256-256 256zM256 8c-119.297 0-216 96.703-216 216s96.703 216 216 216 216-96.703 216-216-96.703-216-216-216zM128 256h160v-160h-160v160zM336 304h-160v-32h128v-128h32zM384 352h-160v-32h128v-128h32z" />
<glyph unicode="&#xe65b;" d="M256 480c-141.391 0-256-114.609-256-256s114.609-256 256-256 256 114.609 256 256-114.609 256-256 256zM256 8c-119.297 0-216 96.703-216 216s96.703 216 216 216 216-96.703 216-216-96.703-216-216-216zM368 264c0 22.094-17.906 40-40 40h-144c-22.094 0-40-17.906-40-40v-80c0-22.094 17.906-40 40-40h144c22.094 0 40 17.906 40 40v80zM183.594 288h144c10.438 0 19.219-6.719 22.531-16h-189.047c3.313 9.281 12.11 16 22.516 16zM352 184c0-13.234-11.156-24-24.406-24h-144c-13.219 0-23.594 10.766-23.594 24v56h192v-56zM183.594 208h64c4.438 0 8 3.578 8 8s-3.562 8-8 8h-64c-4.406 0-8-3.578-8-8s3.594-8 8-8zM311.594 208h16c4.438 0 8 3.578 8 8s-3.562 8-8 8h-16c-4.406 0-8-3.578-8-8s3.594-8 8-8zM183.594 176h32c4.438 0 8 3.578 8 8s-3.562 8-8 8h-32c-4.406 0-8-3.578-8-8s3.594-8 8-8z" />
<glyph unicode="&#xe65c;" d="M335.188 325.812l-79.188-79.187-79.188 79.187-22.624-22.624 79.187-79.188-79.187-79.188 22.624-22.624 79.188 79.187 79.188-79.187 22.624 22.624-79.187 79.188 79.187 79.188zM256 480c-141.391 0-256-114.609-256-256s114.609-256 256-256 256 114.609 256 256-114.609 256-256 256zM256 8c-119.297 0-216 96.703-216 216s96.703 216 216 216 216-96.703 216-216-96.703-216-216-216z" />
<glyph unicode="&#xe65d;" d="M256 480c-141.391 0-256-114.609-256-256s114.609-256 256-256 256 114.609 256 256-114.609 256-256 256zM256 8c-119.297 0-216 96.703-216 216s96.703 216 216 216 216-96.703 216-216-96.703-216-216-216zM384 224l-32 32v-16h-80v80h16l-32 32-32-32h16v-80h-80v16l-32-32 32-32v16h80v-80h-16l32-32 32 32h-16v80h80v-16z" />
<glyph unicode="&#xe65e;" d="M256 480c-141.391 0-256-114.609-256-256s114.609-256 256-256 256 114.609 256 256-114.609 256-256 256zM256 8c-119.297 0-216 96.703-216 216s96.703 216 216 216 216-96.703 216-216-96.703-216-216-216zM320 352h-160v-256h192v219.422l-32 36.578zM176 112v224h128v-32h32v-192h-160z" />
<glyph unicode="&#xe65f;" d="M256 480c-141.391 0-256-114.609-256-256s114.609-256 256-256 256 114.609 256 256-114.609 256-256 256zM256 8c-119.297 0-216 96.703-216 216s96.703 216 216 216 216-96.703 216-216-96.703-216-216-216zM320 352h-160v-256h192v219.422l-32 36.578zM176 112v224h128v-32h32v-192h-160zM192 208h128v-16h-128v16zM192 240h128v-16h-128v16zM192 288h64v-16h-64v16zM192 320h32v-16h-32v16zM192 176h128v-16h-128v16zM192 144h128v-16h-128v16z" />
<glyph unicode="&#xe660;" d="M256 480c-141.391 0-256-114.609-256-256s114.609-256 256-256 256 114.609 256 256-114.609 256-256 256zM256 8c-119.297 0-216 96.703-216 216s96.703 216 216 216 216-96.703 216-216-96.703-216-216-216zM360.5 351.5h-121v-64h-112v-192h144v64h112v169l-23 23zM255.5 111.5h-112v160h96v-112h16v-48zM367.5 175.5h-112v160h80v-32h32v-128z" />
<glyph unicode="&#xe661;" d="M256 480c-141.391 0-256-114.609-256-256s114.609-256 256-256 256 114.609 256 256-114.609 256-256 256zM256 8c-119.297 0-216 96.703-216 216s96.703 216 216 216 216-96.703 216-216-96.703-216-216-216zM267.922 128.266v-32.266h-25.719v30.406c-19.516 0.609-39.047 6.25-50.203 13.469l8.375 29.766c12.406-7.531 29.438-13.781 48.344-13.781 19.812 0 33.141 9.703 33.141 24.438 0 14.391-10.828 23.156-34.078 31.641-32.219 11.906-53.609 27.25-53.609 56.094 0 26.938 18.609 47.938 49.891 53.562v30.405h25.406v-28.828c19.516-0.625 32.859-5.641 42.781-10.656l-8.375-28.828c-7.438 3.75-21.078 10.969-42.141 10.969-21.703 0-29.453-11.281-29.453-21.938 0-12.844 11.156-20.359 37.812-30.719 34.703-13.156 49.906-30.062 49.906-58.281 0-26.641-18.297-49.813-52.078-55.453z" />
<glyph unicode="&#xe662;" d="M256 480c-141.391 0-256-114.609-256-256s114.609-256 256-256 256 114.609 256 256-114.609 256-256 256zM256 8c-119.297 0-216 96.703-216 216s96.703 216 216 216 216-96.703 216-216-96.703-216-216-216zM272 128c0-8.844-7.156-16-16-16s-16 7.156-16 16 7.156 16 16 16 16-7.156 16-16zM272 320c0-8.844-7.156-16-16-16s-16 7.156-16 16 7.156 16 16 16 16-7.156 16-16zM368 224c0-8.844-7.156-16-16-16s-16 7.156-16 16 7.156 16 16 16 16-7.156 16-16zM176 224c0-8.844-7.156-16-16-16s-16 7.156-16 16 7.156 16 16 16 16-7.156 16-16zM173.062 253.156c8.844 25.062 28.719 44.938 53.781 53.781-1.797 4-2.844 8.391-2.844 13.062 0 1.031 0.219 2.016 0.312 3.031-31.891-10.25-57.094-35.453-67.344-67.344 1.016 0.094 2 0.312 3.031 0.312 4.674 0.002 9.064-1.045 13.064-2.842zM226.844 141.062c-25.062 8.859-44.938 28.703-53.781 53.781-4-1.797-8.391-2.844-13.062-2.844-1.031 0-2.016 0.203-3.031 0.297 10.25-31.875 35.453-57.094 67.344-67.312-0.094 1-0.312 1.984-0.312 3.016-0.002 4.672 1.045 9.078 2.842 13.062zM285.156 306.938c25.078-8.844 44.922-28.719 53.781-53.781 3.985 1.796 8.391 2.843 13.063 2.843 1.031 0 2.016-0.219 3.016-0.312-10.219 31.891-35.438 57.094-67.312 67.344 0.094-1.016 0.297-2 0.297-3.031-0.001-4.673-1.048-9.063-2.845-13.063zM338.922 194.844c-8.844-25.062-28.703-44.922-53.766-53.766 1.797-4 2.844-8.406 2.844-13.078 0-1.031-0.203-2.016-0.297-3.016 31.875 10.219 57.094 35.438 67.312 67.312-1-0.094-1.984-0.297-3.016-0.297-4.671 0.001-9.077 1.048-13.077 2.845z" />
<glyph unicode="&#xe663;" d="M256 480c-141.391 0-256-114.609-256-256s114.609-256 256-256 256 114.609 256 256-114.609 256-256 256zM256 8c-119.297 0-216 96.703-216 216s96.703 216 216 216 216-96.703 216-216-96.703-216-216-216zM384 304v48h-48v-36.703l-171.312-171.297h-36.688v-48h48v36.688l171.328 171.312h36.672zM352 336h16v-16h-16v16zM160 112h-16v16h16v-16z" />
<glyph unicode="&#xe664;" d="M256 480c-141.391 0-256-114.609-256-256s114.609-256 256-256 256 114.609 256 256-114.609 256-256 256zM256 8c-119.297 0-216 96.703-216 216s96.703 216 216 216 216-96.703 216-216-96.703-216-216-216zM384 304v48h-48v-16h-160v16h-48v-48h16v-160h-16v-48h48v16h160v-16h48v48h-16v160h16zM352 336h16v-16h-16v16zM144 336h16v-16h-16v16zM160 112h-16v16h16v-16zM368 112h-16v16h16v-16zM352 144h-16v-16h-160v16h-16v160h16v16h160v-16h16v-160z" />
<glyph unicode="&#xe665;" d="M256 480c-141.391 0-256-114.609-256-256s114.609-256 256-256 256 114.609 256 256-114.609 256-256 256zM256 8c-119.297 0-216 96.703-216 216s96.703 216 216 216 216-96.703 216-216-96.703-216-216-216zM384 224.219l-90.531 95.781-37.672-39.875-37.297 39.453-90.5-95.781 90.5-95.797 37.688 39.859 37.281-39.453 90.531 95.813zM267.109 268.156l26.359 27.906 67.906-71.844-67.906-71.859-25.968 27.469 41.531 43.969-41.922 44.359z" />
<glyph unicode="&#xe666;" d="M256 480c-141.391 0-256-114.609-256-256s114.609-256 256-256 256 114.609 256 256-114.609 256-256 256zM256 8c-119.297 0-216 96.703-216 216s96.703 216 216 216 216-96.703 216-216-96.703-216-216-216zM352 160v-32h-192v32h-32v-64h256v64zM272 224v128h-32v-128h-48l64-80 64 80z" />
<glyph unicode="&#xe667;" d="M256 480c-141.391 0-256-114.609-256-256s114.609-256 256-256 256 114.609 256 256-114.609 256-256 256zM256 8c-119.297 0-216 96.703-216 216s96.703 216 216 216 216-96.703 216-216-96.703-216-216-216zM351.891 255.969h15.984v-63.938h-15.984v63.938zM344.031 336h-8v-15.984h8c4.391 0 7.984-3.578 7.984-7.984v-8h15.985v8c0 13.218-10.75 23.968-23.969 23.968zM224.039 335.875h63.93v-15.984h-63.93v15.984zM144 312.031l0.125-8.125h15.984l-0.125 8.125c0 4.406 3.578 7.984 7.992 7.984h7.984v15.985h-7.984c-13.226 0-23.976-10.75-23.976-23.969zM144.125 255.969h15.984v-63.938h-15.984v63.938zM159.984 135.969v8h-15.984v-8c0-13.219 10.75-23.969 23.977-23.969h7.984v15.984h-7.984c-4.415 0-7.993 3.594-7.993 7.985zM224.039 128.109h63.93v-15.984h-63.93v15.984zM352.016 135.969c0-4.391-3.594-7.984-7.984-7.984h-8v-15.985h8c13.218 0 23.968 10.75 23.968 23.969v8h-15.984v-8zM272.109 288.125h-31.968l-0.125-80.297h-31.961l47.945-47.937 47.953 47.937-31.859-0.078z" />
<glyph unicode="&#xe668;" d="M256 480c-141.391 0-256-114.609-256-256s114.609-256 256-256 256 114.609 256 256-114.609 256-256 256zM256 8c-119.297 0-216 96.703-216 216s96.703 216 216 216 216-96.703 216-216-96.703-216-216-216zM303.891 208.039h-31.93v79.828h-31.93v-79.828h-31.922l47.891-47.891zM322.516 133.883c9.453 6.984 17.703 15.359 24.547 24.906l-12.969 9.297c-5.875-8.188-12.969-15.375-21.062-21.375l9.484-12.828zM256.836 127.961l0.148-15.969c11.789 0.094 23.391 2.031 34.5 5.75l-5.047 15.125c-9.515-3.172-19.46-4.812-29.601-4.906zM321.484 314.867c-9.531 6.875-20.047 12.203-31.219 15.781l-4.891-15.203c9.578-3.062 18.594-7.609 26.766-13.516l9.344 12.938zM362.375 259.18c-3.703 11.141-9.094 21.594-16.078 31.078l-12.844-9.453c5.953-8.141 10.594-17.094 13.766-26.641l15.156 5.016zM347.547 194.898l15.219-4.844c3.469 10.938 5.234 22.375 5.234 33.938v0.609l-15.969-0.609c0-9.937-1.5-19.734-4.484-29.094zM166.062 157.227l12.828 9.516c-6.047 8.109-10.734 17.062-13.938 26.562l-15.141-5.094c3.736-11.109 9.205-21.531 16.251-30.984zM148.75 223.148l11.219 0.844c0 10.125 1.578 20.078 4.672 29.641l-15.203 4.906c-3.61-11.141-5.438-22.766-5.438-34.859l4.75-0.532zM199.453 301.617l-9.422 12.875c-9.516-6.938-17.828-15.281-24.703-24.766l12.906-9.391c5.907 8.157 13.063 15.298 21.219 21.282zM222.375 117.133l4.812 15.234c-9.594 3.016-18.641 7.516-26.859 13.375l-9.281-13c9.609-6.828 20.156-12.094 31.328-15.609zM255.727 320.055l-0.062 15.953c-11.828-0.047-23.43-1.906-34.539-5.531l4.984-15.172c9.484 3.093 19.452 4.687 29.617 4.75z" />
<glyph unicode="&#xe669;" d="M256 480c-141.391 0-256-114.609-256-256s114.609-256 256-256 256 114.609 256 256-114.609 256-256 256zM256 8c-119.297 0-216 96.703-216 216s96.703 216 216 216 216-96.703 216-216-96.703-216-216-216zM256 352c-16-48-80-131.812-80-176s35.812-80 80-80 80 35.812 80 80-64 128-80 176zM256 128c-27.625 0-50 22.406-50 50 0 27.625 40 80 50 110 10-30 50-82.375 50-110 0-27.594-22.406-50-50-50z" />
<glyph unicode="&#xe66a;" d="M256 480c-141.391 0-256-114.609-256-256s114.609-256 256-256 256 114.609 256 256-114.609 256-256 256zM256 8c-119.297 0-216 96.703-216 216s96.703 216 216 216 216-96.703 216-216-96.703-216-216-216zM304 176c0-44.188-35.812-80-80-80s-80 35.812-80 80 64 128 80 176c16-48 80-131.812 80-176zM368 286c0-16.562-14.344-30-32-30s-32 13.438-32 30 25.594 48 32 66c6.406-18 32-49.438 32-66z" />
<glyph unicode="&#xe66b;" d="M256 480c-141.391 0-256-114.609-256-256s114.609-256 256-256 256 114.609 256 256-114.609 256-256 256zM256 8c-119.297 0-216 96.703-216 216s96.703 216 216 216 216-96.703 216-216-96.703-216-216-216zM176 208h160l-80 96zM176 176h160v-32h-160v32z" />
<glyph unicode="&#xe66c;" d="M256 480c-141.391 0-256-114.609-256-256s114.609-256 256-256 256 114.609 256 256-114.609 256-256 256zM256 8c-119.297 0-216 96.703-216 216s96.703 216 216 216 216-96.703 216-216-96.703-216-216-216zM368 245.625v-74.438l-54.5 59.422 16.719 11.312c-5.984 1.531-11.641 3.922-16.688 7.203l-57.531-40.874-89.719 63.75h127.344c-2.391 16-4 16-4.812 16h-160.813v-160h256v128.938c-4.578-4.688-10.031-8.469-16-11.313zM144 267.469l54.5-36.859-54.5-59.422v96.281zM256 144h-92.406l45.562 79.422 46.844-31.672 46.844 31.656 45.562-79.406h-92.406zM344 336c-22.094 0-40-17.906-40-40s17.906-40 40-40 40 17.906 40 40-17.906 40-40 40zM368 288h-16v-16h-16v16h-16v16h16v16h16v-16h16v-16z" />
<glyph unicode="&#xe66d;" d="M256 480c-141.391 0-256-114.609-256-256s114.609-256 256-256 256 114.609 256 256-114.609 256-256 256zM256 8c-119.297 0-216 96.703-216 216s96.703 216 216 216 216-96.703 216-216-96.703-216-216-216zM368 245.625v-74.438l-54.5 59.422 16.719 11.312c-5.984 1.531-11.641 3.922-16.688 7.203l-57.531-40.874-89.719 63.75h127.344c-2.391 4.984-4 10.344-4.812 16h-160.813v-160h256v128.938c-4.578-4.688-10.031-8.469-16-11.313zM144 267.469l54.5-36.859-54.5-59.422v96.281zM256 144h-92.406l45.562 79.422 46.844-31.672 46.844 31.672 45.562-79.422h-92.406zM344 336c-22.094 0-40-17.906-40-40s17.906-40 40-40 40 17.906 40 40-17.906 40-40 40zM366.625 284.688l-11.312-11.312-11.313 11.312-11.312-11.312-11.312 11.312 11.312 11.312-11.312 11.312 11.312 11.312 11.312-11.312 11.312 11.312 11.312-11.312-11.312-11.312 11.313-11.312z" />
<glyph unicode="&#xe66e;" d="M256 480c-141.391 0-256-114.609-256-256s114.609-256 256-256 256 114.609 256 256-114.609 256-256 256zM256 8c-119.297 0-216 96.703-216 216s96.703 216 216 216 216-96.703 216-216-96.703-216-216-216zM368 245.625v-74.438l-54.5 59.422 16.719 11.312c-5.984 1.531-11.641 3.922-16.688 7.203l-57.531-40.874-89.719 63.75h127.344c-2.391 4.984-4 10.344-4.812 16h-160.813v-160h256v128.938c-4.578-4.688-10.031-8.469-16-11.313zM144 267.469l54.5-36.859-54.5-59.422v96.281zM256 144h-92.406l45.562 79.422 46.844-31.672 46.844 31.672 45.562-79.422h-92.406zM344 336c-22.094 0-40-17.906-40-40s17.906-40 40-40 40 17.906 40 40-17.906 40-40 40zM344 265.594l-19.203 22.406h11.203v32h16v-32h11.203l-19.203-22.406z" />
<glyph unicode="&#xe66f;" d="M256 480c-141.391 0-256-114.609-256-256s114.609-256 256-256 256 114.609 256 256-114.609 256-256 256zM256 8c-119.297 0-216 96.703-216 216s96.703 216 216 216 216-96.703 216-216-96.703-216-216-216zM248 336h16v-32h-16v32zM248 144h16v-32h-16v32zM329.53 308.847l11.312-11.312-22.625-22.625-11.312 11.312 22.625 22.625zM182.468 139.153l-11.312 11.312 22.625 22.625 11.312-11.312-22.625-22.625zM182.469 308.846l22.625-22.625-11.312-11.312-22.625 22.625 11.312 11.312zM329.531 139.152l-22.625 22.625 11.312 11.312 22.625-22.625-11.312-11.312zM144 232h32v-16h-32v16zM336 232h32v-16h-32v16zM256 288c-35.297 0-64-28.719-64-64s28.703-64 64-64c35.281 0 64 28.719 64 64s-28.719 64-64 64zM256 176v96c26.469 0 48-21.531 48-48s-21.531-48-48-48z" />
<glyph unicode="&#xe670;" d="M256 480c-141.391 0-256-114.609-256-256s114.609-256 256-256 256 114.609 256 256-114.609 256-256 256zM256 8c-119.297 0-216 96.703-216 216s96.703 216 216 216 216-96.703 216-216-96.703-216-216-216zM368 245.625v-74.438l-54.5 59.422 16.719 11.312c-5.984 1.531-11.641 3.922-16.688 7.203l-57.531-40.874-89.719 63.75h127.344c-2.391 16-4 16-4.812 16h-160.813v-160h256v128.938c-4.578-4.688-10.031-8.469-16-11.313zM144 267.469l54.5-36.859-54.5-59.422v96.281zM256 144h-92.406l45.562 79.422 46.844-31.672 46.844 31.656 45.562-79.406h-92.406zM344 336c-22.094 0-40-17.906-40-40s17.906-40 40-40 40 17.906 40 40-17.906 40-40 40zM368 288h-48v16h48v-16z" />
<glyph unicode="&#xe671;" d="M256 480c-141.391 0-256-114.609-256-256s114.609-256 256-256 256 114.609 256 256-114.609 256-256 256zM256 8c-119.297 0-216 96.703-216 216s96.703 216 216 216 216-96.703 216-216-96.703-216-216-216zM368 245.625v-74.438l-54.5 59.422 16.719 11.312c-5.984 1.531-11.641 3.922-16.688 7.203l-57.531-40.874-89.719 63.75h127.344c-2.391 4.984-4 10.344-4.812 16h-160.813v-160h256v128.938c-4.578-4.688-10.031-8.469-16-11.313zM144 267.469l54.5-36.859-54.5-59.422v96.281zM256 144h-92.406l45.562 79.422 46.844-31.672 46.844 31.672 45.562-79.422h-92.406zM384 296c0 22.094-17.938 40-40 40s-40-17.906-40-40c0-22.062 17.938-40 40-40s40 17.938 40 40zM314 296c0 16.547 13.469 30 30 30 6.438 0 12.469-2.094 17.375-5.562l-41.781-41.812c-3.516 4.905-5.594 10.936-5.594 17.374zM326.625 271.594l41.781 41.766c3.532-4.907 5.594-10.922 5.594-17.36 0-16.531-13.469-30-30-30-6.438 0-12.469 2.062-17.375 5.594z" />
<glyph unicode="&#xe672;" d="M256 480c-141.391 0-256-114.609-256-256s114.609-256 256-256 256 114.609 256 256-114.609 256-256 256zM256 8c-119.297 0-216 96.703-216 216s96.703 216 216 216 216-96.703 216-216-96.703-216-216-216zM368 245.625v-74.438l-54.5 59.422 16.719 11.312c-5.984 1.531-11.641 3.922-16.688 7.203l-57.531-40.874-89.719 63.75h127.344c-2.391 4.984-4 10.344-4.812 16h-160.813v-160h256v128.938c-4.578-4.688-10.031-8.469-16-11.313zM144 267.469l54.5-36.859-54.5-59.422v96.281zM256 144h-92.406l45.562 79.422 46.844-31.672 46.844 31.672 45.562-79.422h-92.406zM344 256c22.094 0 40 17.906 40 40s-17.906 40-40 40-40-17.906-40-40 17.906-40 40-40zM344 326.406l19.203-22.406h-11.203v-32h-16v32h-11.203l19.203 22.406z" />
<glyph unicode="&#xe673;" d="M256 480c-141.391 0-256-114.609-256-256s114.609-256 256-256 256 114.609 256 256-114.609 256-256 256zM256 8c-119.297 0-216 96.703-216 216s96.703 216 216 216 216-96.703 216-216-96.703-216-216-216zM277.719 96c-34.656 0-65.891 13.734-86.094 39.234-12.188 14.109-20.562 33.172-24 56.375h-24.375v23.641h21.344c0 1.906 0 3.781 0 5.719 0 4.938 0.375 9.891 0.75 14.078h-22.094v23.609h25.531c4.562 23.625 14.859 43.062 28.562 57.906 20.563 22.485 48.376 35.438 82.313 35.438 22.844 0 41.906-5.719 54.438-11.812l-9.5-35.047c-9.906 4.953-25.5 9.906-42.656 9.906-19.062 0-35.812-6.859-48.406-20.953-7.969-8.375-13.688-20.938-16.75-35.438h99.781v-23.609h-104.36c-0.766-4.188-0.766-8.766-0.766-13.719 0-2.297 0-3.812 0-6.078h105.125v-23.641h-100.937c2.688-15.984 8.391-28.578 16.375-36.953 12.969-14.094 31.25-20.578 51.062-20.578 18.656 0 36.188 6.484 44.969 11.047l7.969-33.906c-12.562-7.594-33.875-15.219-58.281-15.219z" />
<glyph unicode="&#xe674;" d="M256 480c-141.391 0-256-114.609-256-256s114.609-256 256-256 256 114.609 256 256-114.609 256-256 256zM256 8c-119.297 0-216 96.703-216 216s96.703 216 216 216 216-96.703 216-216-96.703-216-216-216zM240 245.344l6.234-85.344h19.547l6.219 86.125v105.875h-32zM240 128h32v-32h-32v32z" />
<glyph unicode="&#xe675;" d="M256 480c-141.391 0-256-114.594-256-256 0-141.375 114.609-256 256-256s256 114.625 256 256c0 141.406-114.609 256-256 256zM256 8c-119.297 0-216 96.719-216 216 0 119.312 96.703 216 216 216s216-96.688 216-216c0-119.281-96.703-216-216-216zM384 287.812v64.188h-64.719l17-17-80.812-80.812-80.907 80.843 16.907 16.969h-63.469v-64.312l16.766 17.093 80.672-80.781-80.688-80.922-16.75 17.016v-64.094h63.406l-16.875 16.922 80.938 80.89 80.843-80.812-17.031-17h64.719v64l-17.203-16.906-80.875 80.906 80.812 80.812z" />
<glyph unicode="&#xe676;" d="M256 480c-141.391 0-256-114.609-256-256s114.609-256 256-256 256 114.609 256 256-114.609 256-256 256zM256 8c-119.297 0-216 96.703-216 216s96.703 216 216 216 216-96.703 216-216-96.703-216-216-216zM192 272h128v-96h-128v96zM176 191.984v64.016l-32-32zM336 191.984l32.016 32.016-32.016 32zM256.016 319.984l-32.016-31.984h64.016zM255.984 128.016l32.016 31.984h-64.016z" />
<glyph unicode="&#xe677;" d="M256 480c-141.391 0-256-114.609-256-256s114.609-256 256-256 256 114.609 256 256-114.609 256-256 256zM256 8c-119.297 0-216 96.703-216 216s96.703 216 216 216 216-96.703 216-216-96.703-216-216-216zM192 272h128v-96h-128v96zM176 191.984v64.016l-32-32zM336 191.984l32.016 32.016-32.016 32z" />
<glyph unicode="&#xe678;" d="M256 480c-141.391 0-256-114.609-256-256s114.609-256 256-256 256 114.609 256 256-114.609 256-256 256zM256 8c-119.297 0-216 96.703-216 216s96.703 216 216 216 216-96.703 216-216-96.703-216-216-216zM192 272h128v-96h-128v96zM256 320l-32-32h64zM256 127.969l32 32.031h-64z" />
<glyph unicode="&#xe679;" d="M256 288c-70.688 0-112-64-112-64s41.312-64 112-64 112 64 112 64-41.312 64-112 64zM256 192.25c-17.672 0-32 14.219-32 31.75s14.328 31.75 32 31.75 31.984-14.219 31.984-31.75-14.312-31.75-31.984-31.75zM256 480c-141.391 0-256-114.609-256-256s114.609-256 256-256 256 114.609 256 256-114.609 256-256 256zM256 8c-119.297 0-216 96.703-216 216s96.703 216 216 216 216-96.703 216-216-96.703-216-216-216z" />
<glyph unicode="&#xe67a;" d="M335.578 258.312l-96.859-96.875c5.578-0.843 11.281-1.437 17.281-1.437 70.688 0 112 64 112 64s-11.453 17.562-32.422 34.312zM176.453 189.672l96.859 96.875c-5.578 0.844-11.312 1.453-17.312 1.453-70.688 0-112-64-112-64s11.453-17.594 32.453-34.328zM144 136l22.406-24 201.594 201.602-22.406 22.398zM256 480c-141.391 0-256-114.609-256-256s114.609-256 256-256 256 114.609 256 256-114.609 256-256 256zM256 8c-119.297 0-216 96.703-216 216s96.703 216 216 216 216-96.703 216-216-96.703-216-216-216z" />
<glyph unicode="&#xe67b;" d="M256 480c-141.391 0-256-114.609-256-256s114.609-256 256-256 256 114.609 256 256-114.609 256-256 256zM256 8c-119.297 0-216 96.703-216 216s96.703 216 216 216 216-96.703 216-216-96.703-216-216-216zM288 320c0-17.673-14.327-32-32-32s-32 14.327-32 32c0 17.673 14.327 32 32 32s32-14.327 32-32zM304 272h-96v-64h16l-16-96h32v-16h31.75l0.25 16h32l-16 96h16z" />
<glyph unicode="&#xe67c;" d="M256 480c-141.391 0-256-114.609-256-256s114.609-256 256-256 256 114.609 256 256-114.609 256-256 256zM256 8c-119.297 0-216 96.703-216 216s96.703 216 216 216 216-96.703 216-216-96.703-216-216-216zM230.839 352c0 0 95.484-64 84.266-152 0 0 32.047 8 23.438 60.938 0 0 46.234-44.609 45.453-84.938-0.641-32.766-41.641-80-118.75-80 0 0 69.531 62.188-22.344 140.875 0 0-84.984-83.844-28.906-140.875 0 0-113.078 28.766-79.906 100.797 33.171 72.047 105.733 78.406 96.749 155.203z" />
<glyph unicode="&#xe67d;" d="M256 480c-141.391 0-256-114.609-256-256s114.609-256 256-256 256 114.609 256 256-114.609 256-256 256zM256 8c-119.297 0-216 96.703-216 216s96.703 216 216 216 216-96.703 216-216-96.703-216-216-216zM176 144l96 80-96 80zM272 224v-80l96 80-96 80z" />
<glyph unicode="&#xe67e;" d="M256 480c-141.391 0-256-114.609-256-256s114.609-256 256-256 256 114.609 256 256-114.609 256-256 256zM256 8c-119.297 0-216 96.703-216 216s96.703 216 216 216 216-96.703 216-216-96.703-216-216-216zM352 352c-17.625 0-32-14.344-32-32 0-11.938 6.641-22.25 16.375-27.75l-30.375-100.438c-0.656 0.047-1.312 0.188-2 0.188-5.391 0-10.406-1.469-14.875-3.859l-35.781 39.172c1.687 3.906 2.656 8.187 2.656 12.687 0 17.656-14.344 32-32 32s-32-14.344-32-32c0-8.672 3.5-16.516 9.109-22.281l-33.859-58.609c-2.344 0.515-4.75 0.89-7.25 0.89-17.656 0-32-14.375-32-32s14.344-32 32-32 32 14.375 32 32c0 9.375-4.125 17.75-10.594 23.625l33.438 57.875c2.906-0.875 5.969-1.5 9.156-1.5 7.266 0 13.891 2.531 19.266 6.625l33.953-37.203c-3.281-5.031-5.219-10.984-5.219-17.422 0-17.625 14.359-32 32-32 17.625 0 32 14.375 32 32 0 11.312-5.906 21.188-14.781 26.875l30.562 101.156c0.078 0 0.125-0.031 0.219-0.031 17.625 0 32 14.344 32 32s-14.375 32-32 32zM160 112c-8.844 0-16 7.141-16 16s7.156 16 16 16 16-7.141 16-16-7.156-16-16-16zM224 224c-8.844 0-16 7.156-16 16s7.156 16 16 16 16-7.156 16-16-7.156-16-16-16zM304 144c-8.859 0-16 7.141-16 16s7.141 16 16 16 16-7.141 16-16-7.141-16-16-16zM352 304c-8.859 0-16 7.156-16 16s7.141 16 16 16 16-7.156 16-16-7.141-16-16-16z" />
<glyph unicode="&#xe67f;" d="M256 480c-141.391 0-256-114.609-256-256s114.609-256 256-256 256 114.609 256 256-114.609 256-256 256zM256 8c-119.297 0-216 96.703-216 216s96.703 216 216 216 216-96.703 216-216-96.703-216-216-216zM128 352h112v-112h-112v112zM128 208h112v-112h-112v112zM272 352h112v-112h-112v112zM272 208h112v-112h-112v112z" />
<glyph unicode="&#xe680;" d="M256 480c-141.391 0-256-114.609-256-256s114.609-256 256-256 256 114.609 256 256-114.609 256-256 256zM256 8c-119.297 0-216 96.703-216 216s96.703 216 216 216 216-96.703 216-216-96.703-216-216-216zM144 336h64v-64h-64v64zM224 336h64v-64h-64v64zM304 336h64v-64h-64v64zM304 256h64v-64h-64v64zM304 176h64v-64h-64v64zM224 176h64v-64h-64v64zM144 176h64v-64h-64v64zM144 256h64v-64h-64v64zM224 256h64v-64h-64v64z" />
<glyph unicode="&#xe681;" d="M256 480c-141.391 0-256-114.609-256-256s114.609-256 256-256 256 114.609 256 256-114.609 256-256 256zM256 8c-119.297 0-216 96.703-216 216s96.703 216 216 216 216-96.703 216-216-96.703-216-216-216zM367.219 199.953l-12.594 128.078c-0.422 4.391-4.375 7.969-8.781 7.969h-176.25c-4.406 0-8.438-3.578-8.969-7.938l-15.656-128.141c-0.531-4.359-0.969-11.531-0.969-15.938v-63.983c0-4.406 3.594-8 8-8h208c4.406 0 8 3.594 8 8v63.984c0 4.407-0.359 11.578-0.781 15.969zM352 136c0-4.406-3.594-8-8-8h-176c-4.406 0-8 3.594-8 8v32c0 4.406 3.594 8 8 8h176c4.406 0 8-3.594 8-8v-32zM329.594 160h-144c-4.406 0-8-3.594-8-8.016 0-4.438 3.594-7.984 8-7.984h144c4.438 0 7.984 3.547 7.984 7.984 0 4.422-3.547 8.016-7.984 8.016z" />
<glyph unicode="&#xe682;" d="M256 480c-141.391 0-256-114.609-256-256s114.609-256 256-256c141.391 0 256 114.609 256 256s-114.609 256-256 256zM256 8c-119.297 0-216 96.703-216 216s96.703 216 216 216 216-96.703 216-216-96.703-216-216-216zM364.422 297.156l-24.844 49.688c-1.969 3.937-7.172 7.156-11.578 7.156h-144c-4.398 0-9.609-3.219-11.578-7.156l-24.844-49.688c-1.969-3.937-3.578-10.75-3.578-15.156v-32c0-4.406 3.602-8 8-8h208c4.406 0 8 3.594 8 8v32c0 4.406-1.609 11.219-3.578 15.156zM168 258c-4.398 0-8 3.594-8 8s3.602 8 8 8 8-3.594 8-8-3.602-8-8-8zM200 258c-4.398 0-8 3.594-8 8s3.602 8 8 8 8-3.594 8-8-3.602-8-8-8zM232 258c-4.398 0-8 3.594-8 8s3.602 8 8 8 8-3.594 8-8-3.602-8-8-8zM344 258c-4.406 0-8 3.594-8 8s3.594 8 8 8 8-3.594 8-8-3.594-8-8-8zM360 226h-208c-4.398 0-8-3.594-8-8v-32c0-4.406 3.602-8 8-8h64c4.398 0 11.602 0 16 0 2.203 0 5.102 0 8 0v-48h-64v-32h160v32h-64v48c2.906 0 5.797 0 8 0 4.406 0 11.594 0 16 0h64c4.406 0 8 3.594 8 8v32c0 4.406-3.594 8-8 8zM168 194c-4.398 0-8 3.594-8 8s3.602 8 8 8 8-3.594 8-8-3.602-8-8-8zM200 194c-4.398 0-8 3.594-8 8s3.602 8 8 8 8-3.594 8-8-3.602-8-8-8zM232 194c-4.398 0-8 3.594-8 8s3.602 8 8 8 8-3.594 8-8-3.602-8-8-8zM344 194c-4.406 0-8 3.594-8 8s3.594 8 8 8 8-3.594 8-8-3.594-8-8-8zM144 130h16v-32h-16v32zM352 130h16v-32h-16v32z" />
<glyph unicode="&#xe683;" d="M256 480c-141.391 0-256-114.609-256-256s114.609-256 256-256 256 114.609 256 256-114.609 256-256 256zM256 8c-119.297 0-216 96.703-216 216s96.703 216 216 216 216-96.703 216-216-96.703-216-216-216zM338.969 344.562c-1.625 4.094-6.563 7.438-10.969 7.438h-144c-4.398 0-9.336-3.344-10.969-7.438l-26.062-65.125c-1.633-4.093-2.969-11.031-2.969-15.437v-32c0-4.406 3.602-8 8-8h208c4.406 0 8 3.594 8 8v32c0 4.406-1.344 11.344-2.969 15.438l-26.062 65.124zM176 248c0-4.406-3.602-8-8-8v0c-4.398 0-8 3.594-8 8v0c0 4.406 3.602 8 8 8v0c4.398 0 8-3.594 8-8v0zM208 248c0-4.406-3.602-8-8-8v0c-4.398 0-8 3.594-8 8v0c0 4.406 3.602 8 8 8v0c4.398 0 8-3.594 8-8v0zM240 248c0-4.406-3.602-8-8-8v0c-4.398 0-8 3.594-8 8v0c0 4.406 3.602 8 8 8v0c4.398 0 8-3.594 8-8v0zM352 248c0-4.406-3.594-8-8-8v0c-4.406 0-8 3.594-8 8v0c0 4.406 3.594 8 8 8v0c4.406 0 8-3.594 8-8v0zM144 168c0-4.406 3.602-8 8-8h208c4.406 0 8 3.594 8 8v32c0 4.406-3.594 8-8 8h-208c-4.398 0-8-3.594-8-8v-32zM336 184c0 4.406 3.594 8 8 8v0c4.406 0 8-3.594 8-8v0c0-4.406-3.594-8-8-8v0c-4.406 0-8 3.594-8 8v0zM224 184c0 4.406 3.602 8 8 8v0c4.398 0 8-3.594 8-8v0c0-4.406-3.602-8-8-8v0c-4.398 0-8 3.594-8 8v0zM192 184c0 4.406 3.602 8 8 8v0c4.398 0 8-3.594 8-8v0c0-4.406-3.602-8-8-8v0c-4.398 0-8 3.594-8 8v0zM160 184c0 4.406 3.602 8 8 8v0c4.398 0 8-3.594 8-8v0c0-4.406-3.602-8-8-8v0c-4.398 0-8 3.594-8 8v0zM144 104c0-4.406 3.602-8 8-8h208c4.406 0 8 3.594 8 8v32c0 4.406-3.594 8-8 8h-208c-4.398 0-8-3.594-8-8v-32zM336 120c0 4.406 3.594 8 8 8v0c4.406 0 8-3.594 8-8v0c0-4.406-3.594-8-8-8v0c-4.406 0-8 3.594-8 8v0zM224 120c0 4.406 3.602 8 8 8v0c4.398 0 8-3.594 8-8v0c0-4.406-3.602-8-8-8v0c-4.398 0-8 3.594-8 8v0zM192 120c0 4.406 3.602 8 8 8v0c4.398 0 8-3.594 8-8v0c0-4.406-3.602-8-8-8v0c-4.398 0-8 3.594-8 8v0zM160 120c0 4.406 3.602 8 8 8v0c4.398 0 8-3.594 8-8v0c0-4.406-3.602-8-8-8v0c-4.398 0-8 3.594-8 8v0z" />
<glyph unicode="&#xe684;" d="M310.75 336c-21.875 0-41.375-10.078-54.75-25.766-13.5 15.688-33 25.766-54.875 25.766-40.375 0-73.125-33.422-73.125-74.625 0-93.375 128-149.375 128-149.375s128 56 128 149.375c0 41.203-32.75 74.625-73.25 74.625zM256 480c-141.391 0-256-114.609-256-256s114.609-256 256-256 256 114.609 256 256-114.609 256-256 256zM256 8c-119.297 0-216 96.703-216 216s96.703 216 216 216 216-96.703 216-216-96.703-216-216-216z" />
<glyph unicode="&#xe685;" d="M256 480c-141.391 0-256-114.609-256-256s114.609-256 256-256 256 114.609 256 256-114.609 256-256 256zM256 8c-119.297 0-216 96.703-216 216s96.703 216 216 216 216-96.703 216-216-96.703-216-216-216zM256.008 256c-17.672 0-32-14.312-32-32 0-17.672 14.328-32 32-32 17.664 0 31.992 14.328 31.992 32 0 17.688-14.328 32-31.992 32zM304.875 277.312l-18.016-13.531c12.75-8.625 21.141-23.219 21.141-39.781s-8.391-31.141-21.141-39.766l18.016-13.531c15.219 12.844 25.125 31.844 25.125 53.297 0 21.469-9.906 40.469-25.125 53.312zM348.844 310.406l-17.75-13.344c19.031-18.531 30.906-44.406 30.906-73.062s-11.875-54.531-30.906-73.047l17.75-13.359c21.718 22.359 35.156 52.781 35.156 86.406s-13.438 64.062-35.156 86.406zM204.008 223.469c0.219 16.562 8.781 31.062 21.656 39.516l-17.844 13.765c-15.375-12.656-25.531-31.516-25.812-53-0.281-21.469 9.375-40.578 24.438-53.625l18.188 13.297c-12.642 8.766-20.845 23.484-20.626 40.047zM181.867 296.844l-17.578 13.562c-22-22.062-35.844-52.312-36.281-85.938-0.438-33.641 12.625-64.234 34.031-86.875l17.938 13.125c-18.812 18.781-30.344 44.797-29.969 73.453 0.375 28.673 12.594 54.391 31.859 72.673z" />
<glyph unicode="&#xe686;" d="M256 480c-141.391 0-256-114.609-256-256s114.609-256 256-256 256 114.609 256 256-114.609 256-256 256zM256 8c-119.297 0-216 96.703-216 216s96.703 216 216 216 216-96.703 216-216-96.703-216-216-216zM256 96c17.672 0 32 14.328 32 32h-64c0-17.672 14.328-32 32-32zM256 352c-53.016 0-96-42.984-96-96 0-37.781 21.875-70.375 53.625-86.031l10.375-25.969h64l10.375 25.969c31.734 15.656 53.625 48.25 53.625 86.031 0 53.016-42.984 96-96 96z" />
<glyph unicode="&#xe687;" d="M285.172 148.547c-12.453-13.25-20.547-18.781-26.094-18.781-3.859 0-5.172 3.422-4.312 11.141 2.594 20.062 17.531 84.578 21.781 107.625 4.266 19.719 3 29.953-2.562 29.953-10.641 0-36.734-17.516-53.828-35.016-0.875-1.344-2.562-8.578-1.688-11.125 0-0.875 1.266-1.312 1.266-1.312 10.266 8.125 18.391 12.844 23.109 12.844 2.109 0 2.938-3.406 1.688-9.406-5.125-25.625-13.672-65.406-20.078-98.281-5.984-28.672-2.172-40.188 6.812-40.188s33.766 11.984 53.906 38.906c0.812 2.094 1.641 10.188 1.25 12.359 0 0.828-1.25 1.281-1.25 1.281zM281.281 352c-7.297 0-16.25-3.414-20.516-7.703-1.688-2.141-3.406-8.539-3.859-11.945 0.453-7.711 2.578-11.984 6.859-14.562 2.109-1.68 16.219-0.414 19.219 1.312 5.188 3.398 9.828 10.25 10.703 18.375 0.375 3.82-0.438 8.984-2.141 11.531-0.858 1.273-4.296 2.992-10.265 2.992zM256 480c-141.391 0-256-114.609-256-256s114.609-256 256-256 256 114.609 256 256-114.609 256-256 256zM256 8c-119.297 0-216 96.703-216 216s96.703 216 216 216 216-96.703 216-216-96.703-216-216-216z" />
<glyph unicode="&#xe688;" d="M256 480c-141.391 0-256-114.609-256-256s114.609-256 256-256 256 114.609 256 256-114.609 256-256 256zM256 8c-119.297 0-216 96.703-216 216s96.703 216 216 216 216-96.703 216-216-96.703-216-216-216zM272.562 118.109l-1.546-6.109h-79.016l1.984 6.109c7.922 0.219 13.172 1 15.719 2.312 4.141 1.875 7.219 4.469 9.203 7.766 3.109 5.172 6.312 14.422 9.625 27.75l33.406 135.125c2.844 11.25 4.25 19.719 4.25 25.438 0 2.875-0.625 5.297-1.828 7.281-1.234 1.969-3.094 3.5-5.594 4.531-2.516 1.062-7.391 1.578-14.672 1.578l1.719 6.109h74.188l-1.562-6.109c-6.031 0.109-10.516-0.672-13.453-2.312-4.234-2.203-7.484-5.344-9.688-9.422-2.234-4.062-5.078-13.094-8.578-27.094l-33.266-135.125c-3.016-12.438-4.531-20.375-4.531-23.781 0-2.75 0.578-5.094 1.766-7.031 1.188-1.922 3.078-3.406 5.656-4.453 2.594-1.047 8.015-1.906 16.218-2.563z" />
<glyph unicode="&#xe689;" d="M256 480c-141.391 0-256-114.609-256-256s114.609-256 256-256 256 114.609 256 256-114.609 256-256 256zM256 8c-119.297 0-216 96.703-216 216s96.703 216 216 216 216-96.703 216-216-96.703-216-216-216zM253.734 240c-7.141 27.562-31.953 48-61.734 48-35.344 0-64-28.656-64-64s28.656-64 64-64c29.781 0 54.594 20.453 61.734 48h82.266v-32h32v32h16v32h-130.266zM192 184c-22.094 0-40 17.922-40 40 0 22.094 17.906 40 40 40s40-17.906 40-40c0-22.078-17.906-40-40-40z" />
<glyph unicode="&#xe68a;" d="M256 480c-141.391 0-256-114.609-256-256s114.609-256 256-256 256 114.609 256 256-114.609 256-256 256zM256 8c-119.297 0-216 96.703-216 216s96.703 216 216 216 216-96.703 216-216-96.703-216-216-216zM256 320l-128-192h256l-128 192zM256 224l-16-16-16 32 32 48 32-48h-16l-16-16z" />
<glyph unicode="&#xe68b;" d="M256 480c-141.391 0-256-114.609-256-256s114.609-256 256-256 256 114.609 256 256-114.609 256-256 256zM256 8c-119.297 0-216 96.703-216 216s96.703 216 216 216 216-96.703 216-216-96.703-216-216-216zM256 124.781l-104.969 65.594-23.031-14.375 128-80 128 79.75-23.031 14.438zM256 173.141l-104.406 65.25-23.594-14.75 128-80 128 79.75-23.609 14.812zM128 272l128-80 128 79.75-128 80.25z" />
<glyph unicode="&#xe68c;" d="M256 480c-141.391 0-256-114.609-256-256s114.609-256 256-256 256 114.609 256 256-114.609 256-256 256zM256 8c-119.297 0-216 96.703-216 216s96.703 216 216 216 216-96.703 216-216-96.703-216-216-216zM224 288c-40.289-32.219-46.742-100.328-47.781-121.453-9.742-9.969-32.219-33.516-32.219-38.547 0-6.406 8-16 16-16 6.875 0 20.82 35.406 24.609 45.359 22.312-6.062 83.609-17.438 127.391 25.047 54.406 52.797 56 153.594 56 153.594s-96-9.594-144-48z" />
<glyph unicode="&#xe68d;" d="M256 480c-141.391 0-256-114.609-256-256s114.609-256 256-256 256 114.609 256 256-114.609 256-256 256zM256 8c-119.297 0-216 96.703-216 216s96.703 216 216 216 216-96.703 216-216-96.703-216-216-216zM304 240h-96v32l-48-48 48-48v32h96v-32l48 48-48 48zM368 288h16v-128h-16v128zM128 288h16v-128h-16v128z" />
<glyph unicode="&#xe68e;" d="M344 192c4.781 0 9.328-0.781 13.766-1.922 15.296 20.36 26.234 44.203 26.234 71.297 0 41.203-32.75 74.625-73.25 74.625-21.875 0-41.375-10.078-54.75-25.766-13.5 15.688-33 25.766-54.875 25.766-40.375 0-73.125-33.422-73.125-74.625 0-93.375 128-149.375 128-149.375s14 6.203 32.641 17.688c-0.235 2.109-0.641 4.156-0.641 6.312 0 30.875 25.125 56 56 56zM256 480c-141.391 0-256-114.609-256-256s114.609-256 256-256 256 114.609 256 256-114.609 256-256 256zM256 8c-119.297 0-216 96.703-216 216s96.703 216 216 216 216-96.703 216-216-96.703-216-216-216zM344 176c-22.094 0-40-17.906-40-40s17.906-40 40-40 40 17.906 40 40-17.906 40-40 40zM368 128h-16v-16h-16v16h-16v16h16v16h16v-16h16v-16z" />
<glyph unicode="&#xe68f;" d="M344 192c4.781 0 9.328-0.781 13.766-1.922 15.296 20.36 26.234 44.203 26.234 71.297 0 41.203-32.75 74.625-73.25 74.625-21.875 0-41.375-10.078-54.75-25.766-13.5 15.688-33 25.766-54.875 25.766-40.375 0-73.125-33.422-73.125-74.625 0-93.375 128-149.375 128-149.375s14 6.203 32.641 17.688c-0.235 2.109-0.641 4.156-0.641 6.312 0 30.875 25.125 56 56 56zM256 480c-141.391 0-256-114.609-256-256s114.609-256 256-256 256 114.609 256 256-114.609 256-256 256zM256 8c-119.297 0-216 96.703-216 216s96.703 216 216 216 216-96.703 216-216-96.703-216-216-216zM384 136c0 22.094-17.938 40-40 40s-40-17.906-40-40c0-22.062 17.938-40 40-40s40 17.938 40 40zM314 136c0 16.547 13.469 30 30 30 6.438 0 12.469-2.094 17.375-5.562l-41.781-41.812c-3.516 4.905-5.594 10.936-5.594 17.374zM326.625 111.594l41.781 41.766c3.532-4.907 5.594-10.922 5.594-17.36 0-16.531-13.469-30-30-30-6.438 0-12.469 2.062-17.375 5.594z" />
<glyph unicode="&#xe690;" d="M344 192c4.781 0 9.328-0.781 13.766-1.922 15.296 20.36 26.234 44.203 26.234 71.297 0 41.203-32.75 74.625-73.25 74.625-21.875 0-41.375-10.078-54.75-25.766-13.5 15.688-33 25.766-54.875 25.766-40.375 0-73.125-33.422-73.125-74.625 0-93.375 128-149.375 128-149.375s14 6.203 32.641 17.688c-0.235 2.109-0.641 4.156-0.641 6.312 0 30.875 25.125 56 56 56zM256 480c-141.391 0-256-114.609-256-256s114.609-256 256-256 256 114.609 256 256-114.609 256-256 256zM256 8c-119.297 0-216 96.703-216 216s96.703 216 216 216 216-96.703 216-216-96.703-216-216-216zM344 176c-22.094 0-40-17.906-40-40s17.906-40 40-40 40 17.906 40 40-17.906 40-40 40zM366.625 124.688l-11.312-11.312-11.313 11.312-11.312-11.312-11.312 11.312 11.312 11.312-11.312 11.312 11.312 11.312 11.312-11.312 11.312 11.312 11.312-11.312-11.312-11.312 11.313-11.312z" />
<glyph unicode="&#xe691;" d="M344 192c4.781 0 9.328-0.781 13.766-1.922 15.296 20.36 26.234 44.203 26.234 71.297 0 41.203-32.75 74.625-73.25 74.625-21.875 0-41.375-10.078-54.75-25.766-13.5 15.688-33 25.766-54.875 25.766-40.375 0-73.125-33.422-73.125-74.625 0-93.375 128-149.375 128-149.375s14 6.203 32.641 17.688c-0.235 2.109-0.641 4.156-0.641 6.312 0 30.875 25.125 56 56 56zM256 480c-141.391 0-256-114.609-256-256s114.609-256 256-256 256 114.609 256 256-114.609 256-256 256zM256 8c-119.297 0-216 96.703-216 216s96.703 216 216 216 216-96.703 216-216-96.703-216-216-216zM344 176c-22.094 0-40-17.906-40-40s17.906-40 40-40 40 17.906 40 40-17.906 40-40 40zM344 105.594l-19.203 22.406h11.203v32h16v-32h11.203l-19.203-22.406z" />
<glyph unicode="&#xe692;" d="M344 192c4.781 0 9.328-0.781 13.766-1.922 15.296 20.36 26.234 44.203 26.234 71.297 0 41.203-32.75 74.625-73.25 74.625-21.875 0-41.375-10.078-54.75-25.766-13.5 15.688-33 25.766-54.875 25.766-40.375 0-73.125-33.422-73.125-74.625 0-93.375 128-149.375 128-149.375s14 6.203 32.641 17.688c-0.235 2.109-0.641 4.156-0.641 6.312 0 30.875 25.125 56 56 56zM256 480c-141.391 0-256-114.609-256-256s114.609-256 256-256 256 114.609 256 256-114.609 256-256 256zM256 8c-119.297 0-216 96.703-216 216s96.703 216 216 216 216-96.703 216-216-96.703-216-216-216zM344 176c-22.094 0-40-17.906-40-40s17.906-40 40-40 40 17.906 40 40-17.906 40-40 40zM368 128h-48v16h48v-16z" />
<glyph unicode="&#xe693;" d="M344 192c4.781 0 9.328-0.781 13.766-1.922 15.296 20.36 26.234 44.203 26.234 71.297 0 41.203-32.75 74.625-73.25 74.625-21.875 0-41.375-10.078-54.75-25.766-13.5 15.688-33 25.766-54.875 25.766-40.375 0-73.125-33.422-73.125-74.625 0-93.375 128-149.375 128-149.375s14 6.203 32.641 17.688c-0.235 2.109-0.641 4.156-0.641 6.312 0 30.875 25.125 56 56 56zM256 480c-141.391 0-256-114.609-256-256s114.609-256 256-256 256 114.609 256 256-114.609 256-256 256zM256 8c-119.297 0-216 96.703-216 216s96.703 216 216 216 216-96.703 216-216-96.703-216-216-216zM344 96c22.094 0 40 17.906 40 40s-17.906 40-40 40-40-17.906-40-40 17.906-40 40-40zM344 166.406l19.203-22.406h-11.203v-32h-16v32h-11.203l19.203 22.406z" />
<glyph unicode="&#xe694;" d="M256 480c-141.391 0-256-114.609-256-256s114.609-256 256-256 256 114.609 256 256-114.609 256-256 256zM256 8c-119.297 0-216 96.703-216 216s96.703 216 216 216 216-96.703 216-216-96.703-216-216-216zM352 272v48h-48l12-12-60-60-60 60 12 12h-48v-48l12 12 60-60-60-60-12 12v-48h48l-12 12 60 60 60-60-12-12h48v48l-12-12-60 60 60 60zM368 352h-48v-16h48v-48h16v64zM384 112v48h-16v-48h-48v-16h64zM144 96h48v16h-48v48h-16v-64zM128 335.984v-47.984h16v48h48v16h-64z" />
<glyph unicode="&#xe695;" d="M256 480c-141.391 0-256-114.609-256-256s114.609-256 256-256 256 114.609 256 256-114.609 256-256 256zM256 8c-119.297 0-216 96.703-216 216s96.703 216 216 216 216-96.703 216-216-96.703-216-216-216zM368 240h-94.406c-0.688 0.375-1.219 0.688-1.906 1.062-24.188 13.156-39.453 23.719-45.875 31.594-4.438 5.375-6.672 11.312-6.672 17.844 0 8.531 3.531 16.156 10.547 22.844 7.031 6.688 16 10 26.75 10 9.516 0 18.75-2.453 27.609-7.391 8.969-4.984 15.844-14.625 20.609-23.047 4.781-8.438 8.188-20.906 10.094-36.906h5.25v80h-5.25c-1.062-4.938-2.516-8.219-4.234-9.859-1.703-1.641-3.859-2.484-6.516-2.484-2.375 0-6.469 1.312-12.266 3.953-12.609 5.578-24.453 8.391-35.656 8.391-17.891 0-32.641-5.562-44.266-16.656-11.594-11.125-17.406-24.359-17.406-39.75 0-8.812 2-16.969 5.906-24.312 2.953-5.469 7.219-10.5 12.172-15.281h-68.484v-32h116.438c15.297-8.781 25.062-14.797 28.766-17.656 6.016-4.625 10.469-9.641 13.297-15.016 2.812-5.359 4.297-10.703 4.297-15.953 0-9.438-3.812-17.656-11.344-24.625s-17.672-10.422-30.625-10.422c-11.188 0-21.484 2.531-30.891 7.578-9.344 5.047-16.312 14.656-20.844 22.297-4.594 7.639-8.219 21.795-10.891 37.795h-10.203v-80h10.203c0.703 4.953 1.859 8.234 3.297 9.812 1.516 1.562 3.594 2.359 6.188 2.359 2.688 0 9.062-1.672 19.156-4.984 10.109-3.312 16.781-5.234 20-5.781 5.406-0.938 11.172-1.406 17.25-1.406 19.406 0 35.328 5.875 47.766 17.594 12.312 11.75 18.547 25.734 18.547 41.938 0 8.531-1.953 16.703-5.828 24.5-2.156 4.344-4.953 8.281-8.141 11.969h47.562v31.999z" />
<glyph unicode="&#xe696;" d="M256 480c-141.391 0-256-114.609-256-256s114.609-256 256-256 256 114.609 256 256-114.609 256-256 256zM256 8c-119.297 0-216 96.703-216 216s96.703 216 216 216 216-96.703 216-216-96.703-216-216-216zM359.5 238.779c-10.844 10.828-23.969 17.719-37.766 21.375-14.625 3.859-29.922 3.672-44.453-0.531-13.172-3.766-25.688-10.469-36.062-20.844-13.688-13.672-34.422-15.703-50.422-6.5-3.109 1.812-6.078 3.859-8.734 6.5-16.312 16.344-16.312 42.828 0 59.125 16.359 16.344 42.812 16.344 59.156 0 2.656-2.625 4.688-5.594 6.5-8.672 14.531 4.172 29.812 4.375 44.469 0.5-3.688 13.797-10.594 26.922-21.406 37.797-32.656 32.625-85.609 32.625-118.281 0-32.656-32.703-32.656-85.656 0-118.312 10.844-10.797 23.969-17.719 37.75-21.406 14.641-3.812 29.906-3.609 44.469 0.516 13.188 3.828 25.688 10.484 36.062 20.891 13.703 13.672 34.453 15.75 50.453 6.484 3.047-1.797 6.047-3.844 8.719-6.484 16.297-16.312 16.297-42.797 0-59.156-16.344-16.312-42.859-16.312-59.172 0-2.656 2.656-4.688 5.641-6.5 8.703-14.531-4.156-29.812-4.328-44.438-0.5 3.656-13.797 10.531-26.922 21.375-37.781 32.656-32.641 85.594-32.641 118.281 0 32.656 32.702 32.656 85.639 0 118.295z" />
<glyph unicode="&#xe697;" d="M256 480c-141.391 0-256-114.609-256-256s114.609-256 256-256 256 114.609 256 256-114.609 256-256 256zM256 8c-119.297 0-216 96.703-216 216s96.703 216 216 216 216-96.703 216-216-96.703-216-216-216zM160 176c-8.844 0-16-7.156-16-16s7.156-16 16-16 16 7.156 16 16-7.156 16-16 16zM160 240c-8.844 0-16-7.156-16-16s7.156-16 16-16 16 7.156 16 16-7.156 16-16 16zM160 304c-8.844 0-16-7.156-16-16s7.156-16 16-16 16 7.156 16 16-7.156 16-16 16zM368 296c0 4.422-3.578 8-8 8h-144c-4.422 0-8-3.578-8-8v-16c0-4.422 3.578-8 8-8h144c4.422 0 8 3.578 8 8v16zM368 232c0 4.422-3.578 8-8 8h-144c-4.422 0-8-3.578-8-8v-16c0-4.422 3.578-8 8-8h144c4.422 0 8 3.578 8 8v16zM368 168c0 4.422-3.578 8-8 8h-144c-4.422 0-8-3.578-8-8v-16c0-4.422 3.578-8 8-8h144c4.422 0 8 3.578 8 8v16z" />
<glyph unicode="&#xe698;" d="M256 480c-141.391 0-256-114.609-256-256s114.609-256 256-256 256 114.609 256 256-114.609 256-256 256zM256 8c-119.297 0-216 96.703-216 216s96.703 216 216 216 216-96.703 216-216-96.703-216-216-216zM208 304h160v-32h-160v32zM208 240h160v-32h-160v32zM144 304h32v-32h-32v32zM144 240h32v-32h-32v32zM144 176h32v-32h-32v32zM208 176h160v-32h-160v32z" />
<glyph unicode="&#xe699;" d="M256 480c-141.391 0-256-114.609-256-256s114.609-256 256-256 256 114.609 256 256-114.609 256-256 256zM256 8c-119.297 0-216 96.703-216 216s96.703 216 216 216 216-96.703 216-216-96.703-216-216-216zM128 192l256 160-160-256v96h-96z" />
<glyph unicode="&#xe69a;" d="M256 480c-141.391 0-256-114.609-256-256s114.609-256 256-256 256 114.609 256 256-114.609 256-256 256zM256 8c-119.297 0-216 96.703-216 216s96.703 216 216 216 216-96.703 216-216-96.703-216-216-216zM128 235.625l104.719-34.891 34.906-104.734 116.375 256-256-116.375zM247.266 215.281l-78.547 26.172 192 87.266-113.453-113.438z" />
<glyph unicode="&#xe69b;" d="M256 480c-141.391 0-256-114.609-256-256s114.609-256 256-256 256 114.609 256 256-114.609 256-256 256zM256 8c-119.297 0-216 96.703-216 216s96.703 216 216 216 216-96.703 216-216-96.703-216-216-216zM335.688 240h-15.688l0.047 46.219c0 27.5-28.562 49.781-63.875 49.781-35.266 0-63.875-22.281-63.875-49.781l-0.297-46.219h-16.031c-8.828 0-15.625-7.125-15.625-14l-0.344-100c0-6.875 7.484-14 16.312-14h159.75c8.797 0 15.594 7.125 15.594 14l0.344 100c0 6.875-7.516 14-16.312 14zM224 288c0 13.719 14.594 23.117 32.172 23.117 17.594 0 31.828-9.398 31.828-23.117l-0.219-48h-63.781v48z" />
<glyph unicode="&#xe69c;" d="M256 480c-141.391 0-256-114.609-256-256s114.609-256 256-256 256 114.609 256 256-114.609 256-256 256zM256 8c-119.297 0-216 96.703-216 216s96.703 216 216 216 216-96.703 216-216-96.703-216-216-216zM296 240h-8.5c0.312 2.516 0.5 5.188 0.5 8 0 13.203-14.406 24-32 24s-32-10.797-32-24c0-2.812 0.188-5.484 0.5-8h-8.5c-4.422 0-8-3.578-8-8v-48c0-4.422 3.578-8 8-8h80c4.422 0 8 3.578 8 8v48c0 4.422-3.578 8-8 8zM240 240c-4.797 9.594 7.203 19.203 16 19.203s20.797-9.609 16-19.203h-32zM370.906 168.812l30.688 55.188h-19.188c-0.797 72.344-56.625 127.516-126.781 127.609-70.609 0.078-127.766-57.078-127.672-127.688 0.078-70.625 57.359-127.906 127.969-127.969 39.875-0.094 75.406 18.125 98.797 46.625l-15.281 25.484c-17.938-27.016-48.641-44.75-83.562-44.703-55.469 0.031-100.484 45.047-100.531 100.531-0.062 55.484 44.844 100.375 100.312 100.312 55.219-0.094 99.078-45.781 99.547-100.203l-19.047 0.031 34.749-55.217z" />
<glyph unicode="&#xe69d;" d="M256 480c-141.391 0-256-114.609-256-256s114.609-256 256-256 256 114.609 256 256-114.609 256-256 256zM256 8c-119.297 0-216 96.703-216 216s96.703 216 216 216 216-96.703 216-216-96.703-216-216-216zM295.656 290.438l-167.656-167.735 26.695-26.703 167.789 167.594-26.828 26.844zM256.664 242.484l39.445 39.469 17.891-17.891-39.438-39.469-17.898 17.891zM362.734 317.281l-13.422 13.422-26.828-26.844 13.422-13.421zM288.406 314.625l-6.594 37.375-18.664-3.297 6.602-37.391zM346.641 256.344l-3.282-18.672 37.36-6.61 3.281 18.688zM304.422 201.281l16.031-34.406 17.203 8.031-16.031 34.391zM241.391 289.547l-34.391 16.031-8.031-17.203 34.398-16.031z" />
<glyph unicode="&#xe69e;" d="M256 480c-141.391 0-256-114.609-256-256s114.609-256 256-256c141.391 0 256 114.609 256 256s-114.609 256-256 256zM256 8c-119.297 0-216 96.702-216 216s96.703 216 216 216c119.298 0 216-96.703 216-216s-96.702-216-216-216zM320 336h32v-32h-32v32zM320 207.562c0-35.108-28.454-63.562-63.547-63.562h-0.906c-35.094 0-63.547 28.454-63.547 63.562v80.438h-32v-80.656c0-52.657 42.688-95.344 95.328-95.344h1.344c52.641 0 95.328 42.687 95.328 95.344v80.656h-32v-80.438zM160 336h32v-32h-32v32z" />
<glyph unicode="&#xe69f;" d="M256 480c-141.391 0-256-114.609-256-256s114.609-256 256-256 256 114.609 256 256-114.609 256-256 256zM256 8c-119.297 0-216 96.703-216 216s96.703 216 216 216 216-96.703 216-216-96.703-216-216-216zM256 304h-128v-160h256v160h-128zM256 288h89.719l-89.719-63.75-89.719 63.75h89.719zM144 283.469l54.5-36.859-54.5-59.422v96.281zM256 160h-92.406l45.562 79.422 46.844-31.672 46.844 31.672 45.562-79.422h-92.406zM368 187.188l-54.5 59.422 54.5 36.859v-96.281z" />
<glyph unicode="&#xe6a0;" d="M256 480c-141.391 0-256-114.609-256-256s114.609-256 256-256 256 114.609 256 256-114.609 256-256 256zM256 8c-119.297 0-216 96.703-216 216s96.703 216 216 216 216-96.703 216-216-96.703-216-216-216zM352.062 352l-0.062-0.016v0.016h-192.062l-31.938-160v-96h256v95.5l-31.938 160.5zM144.594 191.75l28.5 144.25h165.828l28.5-144.25h-222.828zM176 224h160v-16h-160v16zM184 256h144v-16h-144v16zM192 288h128v-16h-128v16zM200 320h112v-16h-112v16z" />
<glyph unicode="&#xe6a1;" d="M256 480c-141.391 0-256-114.609-256-256s114.609-256 256-256 256 114.609 256 256-114.609 256-256 256zM256 8c-119.297 0-216 96.703-216 216s96.703 216 216 216 216-96.703 216-216-96.703-216-216-216zM256 288c17.672 0 32 14.328 32 32s-14.328 32-32 32-32-14.328-32-32 14.328-32 32-32zM208 272v-80h16v-96h64v96h16v80h-96z" />
<glyph unicode="&#xe6a2;" d="M135.5 112l64 32v192l-64-32zM215.5 144l64-32v192l-64 32zM295.5 112l64 32v192l-64-32zM256 480c-141.375 0-256-114.609-256-256s114.625-256 256-256c141.406 0 256 114.609 256 256s-114.594 256-256 256zM256 8c-119.281 0-216 96.703-216 216s96.719 216 216 216c119.312 0 216-96.703 216-216s-96.688-216-216-216z" />
<glyph unicode="&#xe6a3;" d="M256 480c-141.391 0-256-114.609-256-256s114.609-256 256-256 256 114.609 256 256-114.609 256-256 256zM256 8c-119.297 0-216 96.703-216 216s96.703 216 216 216 216-96.703 216-216-96.703-216-216-216zM256 352c-70.688 0-128-57.312-128-128s57.312-128 128-128h128v128c0 70.688-57.297 128-128 128zM160 224c0 52.938 43.062 96 96 96s96-43.062 96-96-43.062-96-96-96-96 43.062-96 96z" />
<glyph unicode="&#xe6a4;" d="M256 480c-141.391 0-256-114.609-256-256s114.609-256 256-256 256 114.609 256 256-114.609 256-256 256zM256 8c-119.297 0-216 96.703-216 216s96.703 216 216 216 216-96.703 216-216-96.703-216-216-216zM256 352c-70.688 0-128-57.312-128-128s57.312-128 128-128h128v128c0 70.688-57.297 128-128 128zM256 128c-52.938 0-96 43.062-96 96s43.062 96 96 96 96-43.062 96-96-43.062-96-96-96zM272 272h-32v-32h-32v-32h32v-32h32v32h32v32h-32z" />
<glyph unicode="&#xe6a5;" d="M256 480c-141.391 0-256-114.609-256-256s114.609-256 256-256 256 114.609 256 256-114.609 256-256 256zM256 8c-119.297 0-216 96.703-216 216s96.703 216 216 216 216-96.703 216-216-96.703-216-216-216zM256 352c-70.688 0-128-57.312-128-128s57.312-128 128-128h128v128c0 70.688-57.297 128-128 128zM256 128c-52.938 0-96 43.062-96 96s43.062 96 96 96 96-43.062 96-96-43.062-96-96-96zM208 240h96v-32h-96v32z" />
<glyph unicode="&#xe6a6;" d="M256 480c-141.391 0-256-114.609-256-256s114.609-256 256-256 256 114.609 256 256-114.609 256-256 256zM256 8c-119.297 0-216 96.703-216 216s96.703 216 216 216 216-96.703 216-216-96.703-216-216-216zM256 352c-70.688 0-128-57.312-128-128s57.312-128 128-128h128v128c0 70.688-57.297 128-128 128zM256 128c-52.938 0-96 43.062-96 96s43.062 96 96 96 96-43.062 96-96-43.062-96-96-96zM208 240c-8.828 0-16-7.156-16-16s7.172-16 16-16c8.844 0 16 7.156 16 16s-7.156 16-16 16zM256 240c-8.844 0-16-7.156-16-16s7.156-16 16-16c8.828 0 16 7.156 16 16s-7.172 16-16 16zM304 240c-8.844 0-16-7.156-16-16s7.156-16 16-16c8.828 0 16 7.156 16 16s-7.172 16-16 16z" />
<glyph unicode="&#xe6a7;" d="M128 240h256v-32h-256v32zM256 480c-141.391 0-256-114.609-256-256s114.609-256 256-256 256 114.609 256 256-114.609 256-256 256zM256 8c-119.297 0-216 96.703-216 216s96.703 216 216 216 216-96.703 216-216-96.703-216-216-216z" />
<glyph unicode="&#xe6a8;" d="M256 480c-141.391 0-256-114.609-256-256s114.609-256 256-256 256 114.609 256 256-114.609 256-256 256zM256 8c-119.297 0-216 96.703-216 216s96.703 216 216 216 216-96.703 216-216-96.703-216-216-216zM128 288h256v-16h-256v16zM128 240h256v-32h-256v32zM128 176h256v-64h-256v64zM128 336h32v-16h-32v16zM176 336h32v-16h-32v16zM224 336h64v-16h-64v16zM304 336h32v-16h-32v16zM352 336h32v-16h-32v16z" />
<glyph unicode="&#xe6a9;" d="M199.5 161.534c-16 4.635-7.93 7.499-18.514 7.499-25.814 0-41.969-16.406-41.969-36.634 0-20.242 12.41-36.649 38.227-36.649 25.831 0 38.256 16.407 38.256 36.649v109.934l112 54.951v-117.417c-16 4.634-6.475 7.483-17.057 7.483-25.801 0-41.25-16.407-41.25-36.634 0-20.243 11.33-36.649 37.146-36.649 25.831 0 37.16 16.406 37.16 36.649v201.534l-144-73.284v-117.432zM256 480.5c-141.651 0-256.5-114.833-256.5-256.5s114.849-256.5 256.5-256.5c141.683 0 256.5 114.833 256.5 256.5s-114.817 256.5-256.5 256.5zM256 7.578c-119.515 0-216.422 96.892-216.422 216.422s96.907 216.422 216.422 216.422c119.546 0 216.422-96.892 216.422-216.422s-96.876-216.422-216.422-216.422z" />
<glyph unicode="&#xe6aa;" d="M256 480c-141.391 0-256-114.609-256-256s114.609-256 256-256 256 114.609 256 256-114.609 256-256 256zM256 8c-119.297 0-216 96.703-216 216s96.703 216 216 216 216-96.703 216-216-96.703-216-216-216zM128 144l96 80-96 80zM224 224v-80l96 80-96 80zM320 240v-96h32v160h-32z" />
</font>
</defs>
</svg>
